<?xml version="1.0" standalone="no"?>
<!DOCTYPE svg PUBLIC "-//W3C//DTD SVG 1.1//EN" "http://www.w3.org/Graphics/SVG/1.1/DTD/svg11.dtd" >
<svg xmlns="http://www.w3.org/2000/svg" xmlns:xlink="http://www.w3.org/1999/xlink" version="1.1">
<metadata>
Created by FontForge 20170731 at Mon Aug 13 15:06:35 2018
 By Aleksey,,,
Copyright (c) 2018 by . All rights reserved.
</metadata>
<defs>
<font id="EenaduLightUni" horiz-adv-x="42" >
  <font-face 
    font-family="EenaduLightUni"
    font-weight="400"
    font-stretch="normal"
    units-per-em="1000"
    panose-1="2 0 5 3 0 0 0 2 0 3"
    ascent="800"
    descent="-200"
    x-height="246"
    cap-height="361"
    bbox="-1259 -748 1167 2021"
    underline-thickness="50"
    underline-position="-150"
    unicode-range="U+0020-25CC"
  />
<missing-glyph horiz-adv-x="700" 
d="M84 0v905h527v-905h-527zM182 99h329v706h-329v-706z" />
    <glyph glyph-name=".notdef" horiz-adv-x="700" 
d="M84 0v905h527v-905h-527zM182 99h329v706h-329v-706z" />
    <glyph glyph-name=".null" horiz-adv-x="0" 
 />
    <glyph glyph-name="nonmarkingreturn" horiz-adv-x="378" 
 />
    <glyph glyph-name="space" unicode=" " horiz-adv-x="320" 
 />
    <glyph glyph-name="exclam" unicode="!" horiz-adv-x="135" 
d="M36 83h-14l-15 216q-1 10 6.5 18.5t18.5 8.5t17 -8.5t5 -18.5zM60 29q0 -11 -9.5 -20t-21.5 -9q-11 0 -20 8t-9 20t9 21t20 9t21 -9t10 -20z" />
    <glyph glyph-name="quotedbl" unicode="&#x22;" horiz-adv-x="201" 
d="M137 235q-2 11 -4.5 28t-5 33.5t-4.5 30t-2 19.5q0 11 7 17t14 6q8 0 14.5 -6t6.5 -17q0 -6 -2 -19.5t-4.5 -30t-5 -33.5t-4.5 -28h-10zM54 235q-2 11 -5 28t-5.5 33.5t-4 30t-1.5 19.5q0 11 6.5 17t14.5 6q7 0 14 -6t7 -17q0 -6 -2 -19.5t-4.5 -30t-5 -33.5t-4.5 -28
h-10z" />
    <glyph glyph-name="numbersign" unicode="#" horiz-adv-x="246" 
d="M233 118h-55l-15 -118h-28l16 118h-67l-17 -118h-28l16 118h-52v30h56l10 73h-54v30h59l15 110h29l-16 -110h65l15 110h29l-14 -110h46v-30h-51l-10 -73h51v-30zM99 221l-11 -73h66l9 73h-64z" />
    <glyph glyph-name="dollar" unicode="$" horiz-adv-x="246" 
d="M202 273q-4 22 -12 36t-18.5 22.5t-21.5 11.5t-20 5v-135q24 -15 41.5 -27t29.5 -25t18 -29t6 -38q0 -23 -7.5 -39.5t-20.5 -27.5t-30.5 -17.5t-36.5 -9.5v-48h-16v48q-38 0 -60 10.5t-32 17.5v71h7q16 -84 85 -84v154q-17 10 -33 21t-28 24t-19.5 29t-7.5 36
q0 14 4.5 28.5t15 26t27.5 19t41 9.5v35h16v-35q17 -2 40 -7.5t39 -21.5v-60h-7zM113 348q-18 -3 -28 -11t-15 -17t-6 -17t-1 -12q0 -22 14 -37.5t36 -31.5v126zM130 15q6 1 15.5 4t18.5 10t15.5 19.5t6.5 33.5q0 30 -16.5 46t-39.5 32v-145z" />
    <glyph glyph-name="percent" unicode="%" horiz-adv-x="633" 
d="M285 496q26 -28 32 -60.5t-2.5 -62.5t-28.5 -54t-46.5 -35t-56.5 -5t-57 35q-26 28 -32 60.5t2.5 63t29 54.5t47 35t56 5t57.5 -36h-1zM487 526q-3 -6 -18 -31.5t-37.5 -63t-50.5 -83.5t-56.5 -93t-56 -91.5t-49 -79t-35 -56t-14.5 -22.5l-9 -3l-18 9q1 3 13.5 24.5
t33 55t46.5 76.5t53.5 88t54.5 89t49.5 80.5t38.5 62.5t21 34q8 12 14 10.5t20 -6.5zM507 222q26 -28 32 -61t-2.5 -63t-29 -54t-47 -35t-56.5 -5t-58 36q-26 28 -32 60.5t3 62.5t29.5 54.5t47 35.5t56 5t57.5 -36zM206 303q17 0 28 15t15.5 38t4 49.5t-6.5 49.5t-17 38
t-27 15q-13 0 -21.5 -8t-13.5 -19q-5 -9 -8 -25.5t-3.5 -36.5t1.5 -40.5t7.5 -37.5t15.5 -27.5t25 -10.5zM463 55q7 14 10.5 43.5t0.5 59.5t-14.5 53t-34.5 23q-13 0 -21.5 -8t-13.5 -19q-7 -14 -10 -43.5t0.5 -59.5t14.5 -53t34 -23q13 0 21 8t13 19z" />
    <glyph glyph-name="ampersand" unicode="&#x26;" horiz-adv-x="383" 
d="M138 304q0 -20 6 -40t14 -37q5 3 14.5 9t19.5 16t17 23.5t7 30.5q0 20 -11.5 32.5t-27.5 12.5t-27.5 -11t-11.5 -36zM351 221q-14 -2 -25.5 -7t-21.5 -25l-13 -25l-11 -22t-8.5 -15.5t-11 -17.5t-18.5 -27q1 -3 8 -11t16.5 -17t22 -16t26.5 -7q19 0 29 8.5t18 20.5l8 -5
q0 -1 -4.5 -11t-14 -21.5t-23.5 -21t-34 -9.5q-15 0 -27.5 5.5t-23 13.5t-18.5 17t-14 15q-14 -15 -39.5 -33t-69.5 -18q-11 0 -25 3.5t-26.5 13t-21 26.5t-8.5 44q0 21 7.5 38.5t19 32t25 25.5t26.5 19l18 12q-9 25 -13 41.5t-4 35.5q0 15 4.5 30t14 27.5t23.5 20.5t33 8
q27 0 47 -17.5t20 -48.5q0 -20 -7.5 -34.5t-19 -25.5t-24.5 -19t-25 -14q13 -29 29.5 -58t34.5 -55q5 8 13 19.5t15 25t12 27.5t5 27q0 16 -9 19.5t-23 5.5v12h108v-12zM66 99q0 -32 19 -55t45 -23q8 0 25.5 6.5t43.5 29.5q-21 28 -40 63t-35 67q-8 -6 -18 -14t-19 -18.5
t-15 -24t-6 -31.5z" />
    <glyph glyph-name="quotesingle" unicode="'" horiz-adv-x="89" 
d="M39 235q-2 11 -4.5 28t-5 33.5t-4 30t-1.5 19.5q0 11 6.5 17t14.5 6q7 0 13.5 -6t6.5 -17q0 -6 -2 -19.5t-4.5 -30t-5 -33.5t-4.5 -28h-10z" />
    <glyph glyph-name="parenleft" unicode="(" horiz-adv-x="215" 
d="M157 -56q0 4 -24.5 24t-54 55.5t-54 87t-24.5 117.5t24.5 118t54 88t54 55.5t24.5 21.5h25q-24 -23 -46.5 -52.5t-40 -64.5t-28.5 -76.5t-11 -88.5t7.5 -85t23 -71t39 -64t56.5 -65h-25z" />
    <glyph glyph-name="parenright" unicode=")" horiz-adv-x="260" 
d="M182 228q0 -66 -24.5 -117.5t-54 -87t-54 -55.5t-24.5 -24h-25q33 34 56.5 65t39.5 64t23.5 71t7.5 85t-11 88.5t-29 76.5t-40.5 64.5t-46.5 52.5h25q0 -2 24.5 -21.5t54 -55.5t54 -88t24.5 -118z" />
    <glyph glyph-name="asterisk" unicode="*" horiz-adv-x="399" 
d="M308 532q16 -23 11 -35t-19.5 -18.5t-33.5 -9.5t-29 -7q-2 0 -7.5 -2.5t-10.5 -5.5t-8.5 -6.5t-1.5 -4.5q14 -13 33.5 -18t38.5 -7q21 -2 28.5 -13.5t6.5 -25t-8.5 -24.5t-17.5 -11q-7 0 -17.5 12t-21.5 27.5t-23 30.5t-22 22l-4 -2q0 -16 4 -31t8.5 -29.5t8.5 -28.5
t4 -28q0 -17 -8.5 -25.5t-19 -8.5t-19 8.5t-8.5 25.5q0 14 4 28.5t8.5 29t8.5 29.5t4 31l-4 2q-10 -8 -23 -27t-26.5 -36t-27 -25t-24.5 7q-17 22 -12.5 34.5t18.5 19t31.5 9t26.5 5.5q2 1 8.5 3.5t13.5 6.5t11 7.5t2 5.5q-12 11 -30.5 15t-35.5 7.5t-29.5 11t-12.5 25.5
q0 15 9 27q11 15 24.5 7t27 -25t26.5 -36.5t24 -26.5l4 2q0 16 -4 31.5t-9 30t-9 29t-4 28.5q0 16 8.5 24.5t19 8.5t19.5 -8.5t9 -25.5q0 -14 -4 -28.5t-9 -29t-9 -29.5t-4 -31l4 -2q10 8 23 27t27 36t27.5 24.5t24.5 -7.5z" />
    <glyph glyph-name="plus" unicode="+" horiz-adv-x="322" 
d="M153 125v-125h-28v125h-125v28h125v125h28v-125h125v-28h-125z" />
    <glyph glyph-name="comma" unicode="," horiz-adv-x="101" 
d="M76 4q0 -32 -13 -53t-44 -34q-2 1 -6 5.5t-6 6.5q18 8 31.5 22t13.5 34q0 11 -4 18q-4 -2 -8.5 -4t-9.5 -2q-11 0 -20.5 8.5t-9.5 19.5q0 12 9 21t20 9q20 0 33.5 -16.5t13.5 -34.5z" />
    <glyph glyph-name="hyphen" unicode="-" horiz-adv-x="204" 
d="M0 154v39h162v-39h-162z" />
    <glyph glyph-name="period" unicode="." horiz-adv-x="209" 
d="M59 27q0 -11 -10 -20.5t-21 -9.5t-19.5 9t-8.5 20q0 13 8.5 21t21.5 8q12 0 20.5 -8t8.5 -20z" />
    <glyph glyph-name="slash" unicode="/" horiz-adv-x="280" 
d="M42 0h-42l164 462h41z" />
    <glyph glyph-name="zero" unicode="0" horiz-adv-x="299" 
d="M249 250q0 -42 -4 -86t-16.5 -80.5t-37 -60t-66.5 -23.5t-66.5 23.5t-37.5 60.5t-17 81t-4 86t4 86t17 80t37.5 59.5t66.5 23.5t66.5 -23.5t37 -60t16.5 -80.5t4 -86zM193 389q0 16 -4.5 31t-13.5 27t-21.5 19.5t-28.5 7.5t-28.5 -7.5t-21.5 -19.5t-14 -27t-5 -31v-278
q0 -16 5 -31.5t14 -27.5t21.5 -19.5t28.5 -7.5t28.5 7.5t21.5 19.5t13.5 27.5t4.5 31.5v278z" />
    <glyph glyph-name="one" unicode="1" horiz-adv-x="246" 
d="M196 21q0 -15 -8 -19q-4 -3 -7 -2h-142q-4 -1 -8 2q-8 4 -8 19q0 7 2 10.5t4 5.5q3 2 7 3h47v374q-10 -7 -21 -13q-10 -5 -21.5 -9.5t-22.5 -4.5q-8 0 -13 4t-5 13q0 7 6 13q2 2 7.5 3t14 4t19.5 10t25 21q12 12 17 21t8 15t7 9t13 3t13.5 -7t4.5 -18v-438h48q3 -1 6 -3
q2 -2 4.5 -5.5t2.5 -10.5z" />
    <glyph glyph-name="two" unicode="2" horiz-adv-x="276" 
d="M226 371q0 -40 -14 -71t-34.5 -55.5t-45 -44t-45 -37t-34.5 -35t-14 -36.5q1 -1 5 0t9 2t9.5 2t6.5 1q14 0 25.5 -7t21.5 -15.5t19 -15.5t18 -7q22 0 30 12.5t10.5 28t4 28t10.5 12.5q10 0 13.5 -21t-2 -45.5t-22.5 -45.5t-47 -21q-22 0 -35 9.5t-22 21.5t-16 21.5
t-16 9.5q-13 0 -16.5 -9.5t-4.5 -21.5t-3.5 -21.5t-14.5 -9.5q-13 0 -17.5 14.5t-4.5 33.5t3 37t5 25q4 15 14 28.5t22 25.5t25 22.5t24 19.5q10 8 18 16.5t16 17.5q23 29 36.5 60.5t13.5 69.5q0 17 -3 35t-11 33t-22 25t-35 10q-14 0 -27.5 -8.5t-23.5 -21.5t-16 -28.5
t-6 -28.5q0 -5 7.5 -5.5t16 -2.5t16 -9t7.5 -23q0 -14 -9.5 -25t-23.5 -11q-21 0 -32 15.5t-13 38.5t5.5 49.5t23.5 47.5t41 33t59 6q50 -9 72.5 -45.5t22.5 -83.5z" />
    <glyph glyph-name="three" unicode="3" horiz-adv-x="275" 
d="M175 368q0 41 -10.5 64.5t-26.5 33t-35 7t-34.5 -13.5t-25.5 -28.5t-9 -37.5l2 -2q22 5 33.5 -5t13 -24.5t-7.5 -27.5t-28 -13q-16 0 -27 13.5t-15 33.5t-0.5 43t16 43t35 33.5t55.5 13.5q50 0 77.5 -28.5t34.5 -67t-6.5 -77t-44.5 -58.5v-2q34 -33 45.5 -79.5t2.5 -89
t-38 -72t-74 -29.5q-31 0 -53 13.5t-35 34t-17.5 44.5t-1.5 44.5t14 34t29 13.5t27 -12.5t8.5 -26.5t-12.5 -24t-36 -5l-3 -6q0 -20 10.5 -38t27 -29.5t36.5 -14.5t38 9q12 8 20.5 28t12 44.5t2.5 51t-7.5 48.5t-18.5 35t-30 12q-5 0 -13.5 -1.5t-17 -0.5t-15 5t-6.5 13
q0 10 6 14t14.5 4t17.5 -1.5t14 -2.5q16 -2 27 6.5t17.5 22t9 29t2.5 26.5z" />
    <glyph glyph-name="four" unicode="4" horiz-adv-x="283" 
d="M229 18q0 -8 -2.5 -11.5t-5.5 -5.5q-4 -2 -7 -1h-107q-4 -1 -8 1q-7 3 -7 17q0 12 6 16q3 2 6 2h32v76h-103q-10 0 -21.5 10t-11.5 27q0 2 6 17.5t15.5 39.5t22 54t25.5 61q31 73 70 165q0 3 4 7q3 3 8.5 5.5t16.5 2.5t16.5 -2.5t5.5 -12.5v-347h32q5 0 7.5 -4t2.5 -9.5
t-2.5 -9.5t-7.5 -4h-34v-76h28q3 0 6 -2q2 -2 4.5 -5.5t2.5 -10.5zM138 401l-105 -246q0 -16 24 -16h81v262z" />
    <glyph glyph-name="five" unicode="5" horiz-adv-x="283" 
d="M224 477q0 -13 -9 -21.5t-22 -14t-27 -7.5t-24 -2q-24 0 -43.5 6.5t-40.5 15.5q-4 -19 -1.5 -43.5t2.5 -43.5q0 -14 -1.5 -27t-1.5 -27q12 14 30.5 22.5t37.5 8.5q34 0 57.5 -21t36 -53t14.5 -72t-7 -77t-28.5 -68t-49.5 -46q-9 -5 -21 -7.5t-22 -2.5q-32 0 -53.5 14
t-34 34.5t-15.5 44.5t2 44.5t17 34.5t30 14t26 -11.5t7.5 -25t-9 -24.5t-24.5 -10q-3 0 -7 1t-6 1q-5 0 -5 -4.5v-6.5q2 -30 19.5 -53.5t49.5 -23.5q23 0 38 13.5t24 33t12.5 42t3.5 40.5q0 13 0.5 40t-4 54t-16 47.5t-36.5 20.5q-20 0 -31.5 -10t-19.5 -21.5t-15 -21.5
t-17 -10q-16 0 -21.5 14t-5.5 32.5t3 36t3 24.5q2 28 0.5 56t-1.5 57q0 18 11 21.5t27.5 0.5t35 -8.5t33.5 -5.5q23 0 44 8.5t33 8.5q22 0 22 -22z" />
    <glyph glyph-name="six" unicode="6" horiz-adv-x="286" 
d="M199 386q4 15 0.5 31t-12.5 29t-23 21.5t-30 8.5q-24 0 -39 -14.5t-24.5 -37t-13.5 -50.5t-5 -55.5t-0.5 -51.5t1.5 -38q10 20 31 37.5t46 17.5q38 0 62 -21t35 -53t9 -68.5t-15.5 -68.5t-38.5 -53t-61 -21q-38 0 -62 22t-37.5 54t-18 69t-3.5 66q0 23 0.5 54t4 63.5
t11.5 63.5t23 55.5t38.5 39.5t59.5 15q30 0 50.5 -13.5t31.5 -33.5t13 -43.5t-2.5 -43.5t-16 -33.5t-27.5 -13.5q-20 0 -28 13t-6 27t14 23.5t33 2.5zM185 152q0 56 -20 81t-44.5 22.5t-44.5 -30.5t-20 -78q0 -57 20 -88.5t44.5 -33t44.5 29t20 97.5z" />
    <glyph glyph-name="seven" unicode="7" horiz-adv-x="280" 
d="M211 501q19 0 18.5 -21t-10.5 -47.5t-22.5 -50t-16.5 -28.5q-19 -60 -26 -125.5t3 -128.5q2 -17 9.5 -37t7.5 -37t-11.5 -24t-25 -2t-24.5 25t-11 58q0 88 16 170.5t55 162.5h-2q-29 -10 -43 -5.5t-22.5 14.5t-14.5 19.5t-19 9.5q-20 0 -23 -13.5t-2 -29.5t0 -29.5
t-16 -13.5q-12 0 -16.5 7.5t-4.5 17.5t1.5 20.5t0.5 17.5q-1 3 -3 11.5t-4 17.5t-3.5 16.5t-1.5 9.5q1 14 6.5 16.5t12.5 -0.5t14 -10t10 -13q19 26 38 24.5t34.5 -14t27 -27.5t16.5 -15q12 0 16.5 8.5t8 18.5t8.5 18.5t19 8.5z" />
    <glyph glyph-name="eight" unicode="8" horiz-adv-x="278" 
d="M227 385q0 -35 -12.5 -67t-43.5 -52v-3q24 -18 37.5 -44.5t17.5 -55.5t-1 -58.5t-19 -53t-36 -38t-52 -14.5q-33 0 -57 15.5t-38.5 39.5t-19.5 54t-0.5 60t19 56t39.5 42q-11 13 -22.5 21.5t-20.5 24.5q-8 14 -11.5 31t-3.5 33q0 42 16.5 71t41.5 43.5t54 15t54 -12.5
t41.5 -40t16.5 -68zM141 283q11 2 20.5 17t14.5 36.5t5 45.5t-7 45t-22.5 34.5t-40.5 13.5q-28 0 -43 -16t-19.5 -39t0.5 -47.5t19 -41.5t33.5 -27.5t39.5 -20.5zM185 120q0 13 -3.5 28.5t-10 30.5t-15 28t-18.5 21q-8 6 -22 15t-23 9q-3 0 -8 -4t-10 -9.5t-9.5 -11
t-5.5 -8.5q-8 -21 -10.5 -34.5t-2.5 -36.5q0 -59 21.5 -89t47.5 -32.5t47.5 21.5t21.5 72z" />
    <glyph glyph-name="nine" unicode="9" horiz-adv-x="286" 
d="M236 290q-1 -23 -1 -54t-3.5 -63.5t-11 -63.5t-22.5 -55.5t-39 -39.5t-59 -15q-31 0 -51 13.5t-31 33.5t-13.5 43.5t2 43.5t15.5 33.5t28 13.5q19 0 27.5 -13t7 -27t-13.5 -23.5t-33 -2.5q-5 -15 -1.5 -31t12.5 -29t23 -21.5t30 -8.5q24 0 39.5 14.5t24.5 37t13 50.5
t5 55.5t0.5 51t-0.5 38.5q-11 -20 -32 -37.5t-45 -17.5q-38 0 -62 21t-35 53t-9.5 68.5t15 68.5t38.5 53t61 21q38 0 62 -22t37 -54.5t17.5 -69t4.5 -65.5zM180 353q0 57 -20 88.5t-44.5 33t-44.5 -29t-20 -97.5q0 -56 20 -81t44.5 -22.5t44.5 30.5t20 78z" />
    <glyph glyph-name="colon" unicode=":" horiz-adv-x="135" 
d="M60 169q0 -13 -9 -22t-22 -9q-11 0 -19.5 9t-8.5 20t9 20.5t20 9.5t20.5 -8.5t9.5 -19.5zM59 27q0 -11 -10 -20.5t-21 -9.5t-19.5 9t-8.5 20q0 13 8.5 21t21.5 8q12 0 20.5 -8t8.5 -20z" />
    <glyph glyph-name="semicolon" unicode=";" horiz-adv-x="151" 
d="M58 167q0 -11 -8.5 -20t-19.5 -9q-12 0 -21 8.5t-9 20.5t8.5 20.5t20.5 8.5t20.5 -9t8.5 -20zM76 4q0 -32 -13 -53t-44 -34q-2 1 -6 5.5t-6 6.5q18 8 31.5 22t13.5 34q0 11 -4 18q-4 -2 -8.5 -4t-9.5 -2q-11 0 -20.5 8.5t-9.5 19.5q0 12 9 21t20 9q20 0 33.5 -16.5
t13.5 -34.5z" />
    <glyph glyph-name="less" unicode="&#x3c;" horiz-adv-x="278" 
d="M263 -4l-250 126v33l250 126v-38l-209 -105l209 -106v-36z" />
    <glyph glyph-name="equal" unicode="=" horiz-adv-x="325" 
d="M0 150v50h250v-50h-250zM0 50v50h250v-50h-250z" />
    <glyph glyph-name="greater" unicode="&#x3e;" horiz-adv-x="278" 
d="M223 138l-210 105v38l250 -126v-33l-250 -126v36z" />
    <glyph glyph-name="question" unicode="?" horiz-adv-x="329" 
d="M161 253q0 -22 -10.5 -38.5t-25.5 -29.5t-30 -24t-24.5 -21.5t-9.5 -23t16 -28.5l-10 -11q-5 0 -13 4.5t-15.5 12.5t-12.5 19t-5 23q0 21 17.5 36t38 29.5t38 29.5t17.5 36q0 23 -14 34t-30.5 11t-30.5 -8.5t-14 -24.5q12 0 18.5 -8.5t6 -18.5t-8 -18.5t-23.5 -8.5
q-18 0 -27 12.5t-9 29.5q0 34 25 51t55.5 15.5t55.5 -21.5t25 -59zM61 56q13 0 20.5 -9t7.5 -20.5t-7 -20.5t-22 -9t-22.5 9t-7.5 20.5t8 20.5t23 9z" />
    <glyph glyph-name="at" unicode="@" horiz-adv-x="453" 
d="M281 218q0 35 -21 35q-8 0 -19.5 -7t-22 -20.5t-18 -33t-7.5 -44.5t9 -35.5t22 -10.5q15 0 33.5 29t23.5 87zM346 23q-24 -11 -49.5 -21t-54.5 -10q-48 0 -83 18t-57.5 45t-33 58.5t-10.5 58.5q0 44 14.5 80.5t39 62.5t57 40t69.5 14q34 0 63 -12t50.5 -34t34 -51.5
t12.5 -63.5q0 -21 -6 -44t-17.5 -42t-28.5 -31.5t-39 -12.5q-12 0 -20.5 5t-14 12t-7.5 13t-2 9h-1q-2 -4 -7 -10t-12.5 -12t-17 -10.5t-19.5 -5.5q-5 0 -13.5 1.5t-16 8.5t-13 20.5t-5.5 36.5q0 14 6 36.5t18 43.5t30 36t43 15q17 0 23.5 -9t11.5 -20l4 21h35l-32 -138
q-1 -3 -1.5 -9t1 -11.5t6 -10t12.5 -4.5q15 0 26.5 11t20 27.5t13 36t4.5 36.5q0 23 -9.5 48.5t-27.5 47t-44.5 35.5t-59.5 14q-29 0 -54.5 -12t-44 -35.5t-29.5 -58t-11 -79.5q0 -30 10 -57.5t29 -48.5t45.5 -34t58.5 -13t54 7.5t42 18.5z" />
    <glyph glyph-name="A" unicode="A" horiz-adv-x="355" 
d="M348 0h-125v10q13 0 23 3t10 18q0 7 -3.5 18t-5.5 16l-20 53h-128l-23 -64q-5 -12 -5 -21t4 -13.5t9.5 -6.5t11 -2.5t9.5 -0.5v-10h-97v10q5 1 11.5 2.5t13.5 9.5q4 6 9 15.5t9.5 20t9 21.5t7.5 20l103 269h9l123 -310q12 -30 20 -38.5t25 -9.5v-10zM219 140l-56 151
l-57 -151h113z" />
    <glyph glyph-name="B" unicode="B" horiz-adv-x="329" 
d="M9 361h137q16 0 38 -2.5t42.5 -11.5t34.5 -27.5t14 -50.5q0 -23 -7 -37.5t-17 -23t-21 -12.5t-20 -6q32 -8 57.5 -29.5t25.5 -64.5q0 -8 -3.5 -24t-16 -32t-36.5 -28t-65 -12h-163v10q30 1 38 11t8 39v242q0 30 -8.5 38.5t-37.5 9.5v11zM105 43q0 -16 9 -19.5t29 -3.5
q13 0 29 2t30 10t24 24t10 43q0 33 -15.5 49t-34.5 22q-13 4 -29 6t-52 2v-135zM105 200h48q5 0 17 1t24 7.5t21.5 20t9.5 37.5t-8.5 39t-21.5 23t-28 10.5t-28 2.5q-8 0 -13.5 -0.5t-8.5 -0.5q-8 0 -10 -4.5t-2 -10.5v-125z" />
    <glyph glyph-name="C" unicode="C" horiz-adv-x="329" 
d="M294 247q-10 42 -36.5 71t-71.5 29q-19 0 -38.5 -8t-36.5 -25q-7 -8 -14 -19t-13 -27t-9.5 -37.5t-3.5 -51.5q0 -43 10 -74t27 -50.5t39 -28.5t45 -9t41 6t31.5 15t23 18t14.5 15l10 -10l-8.5 -11t-25 -24t-41.5 -23.5t-59 -10.5q-29 0 -58.5 10.5t-53 33t-38.5 58.5
t-15 87q0 46 14.5 81t38 59t53.5 36t62 12q33 0 56 -9.5t31 -9.5q2 0 10.5 2.5t11.5 16.5h10l5 -122h-11z" />
    <glyph glyph-name="D" unicode="D" horiz-adv-x="355" 
d="M8 10q28 1 35.5 11t7.5 39v242q0 30 -7.5 38t-35.5 10v11h133q88 0 141.5 -45t53.5 -137q0 -27 -8.5 -58.5t-29.5 -58t-57.5 -44.5t-92.5 -18h-140v10zM102 43q0 -14 5.5 -18.5t23.5 -4.5q12 0 37 2.5t51 17.5t45.5 47t19.5 92q0 34 -10 66t-36 58q-18 17 -42.5 27.5
t-71.5 10.5q-17 0 -19.5 -6.5t-2.5 -14.5v-277z" />
    <glyph glyph-name="E" unicode="E" horiz-adv-x="300" 
d="M272 0h-265v10q22 1 31.5 9.5t9.5 40.5v242q0 32 -9 39.5t-32 8.5v11h261l1 -78h-13q-3 18 -7 29.5t-12 17.5t-21.5 8t-34.5 2h-65q-8 0 -12 -2.5t-4 -16.5v-120h75q33 0 41.5 11.5t11.5 40.5h12v-127h-12q-2 16 -4.5 26.5t-8.5 16t-15.5 7.5t-24.5 2l-75 1v-136
q0 -8 1 -12.5t8 -6.5t21 -2.5t41 -0.5q24 0 40.5 3.5t29 11.5t22 22t17.5 35h14z" />
    <glyph glyph-name="F" unicode="F" horiz-adv-x="274" 
d="M224 126q-2 17 -5.5 27.5t-9.5 15.5t-15 7t-23 2l-71 1v-119q0 -31 8.5 -40t34.5 -10v-10h-136v10q28 1 34.5 11.5t6.5 43.5v237q0 32 -9 39.5t-32 8.5v11h261l1 -78h-13q-3 18 -7 29.5t-12 17.5t-21.5 8t-34.5 2h-65q-11 0 -13.5 -3t-2.5 -16v-120h71q30 0 39.5 10.5
t13.5 41.5h13v-127h-13z" />
    <glyph glyph-name="G" unicode="G" horiz-adv-x="355" 
d="M350 184q-17 -2 -26 -8t-9 -34v-111q0 -3 -11 -9t-28.5 -13t-39 -12t-41.5 -5q-37 0 -74.5 13.5t-63.5 45.5q-10 12 -18 24.5t-13 28t-8 35.5t-3 46q0 34 12 67.5t33.5 59t53 41.5t70.5 16q19 0 32.5 -3t24 -6.5t18.5 -6.5t14 -3q2 0 11 4t11 15h12l4 -116h-13
q-5 15 -12.5 31.5t-20 30.5t-30.5 23t-44 9q-18 0 -38.5 -7.5t-38.5 -27t-30 -52.5t-12 -85q0 -75 35 -118t92 -43q26 0 47 8.5t21 23.5v88q0 17 -2 26.5t-7 14.5t-13.5 6.5t-20.5 2.5v9h126v-9z" />
    <glyph glyph-name="H" unicode="H" horiz-adv-x="355" 
d="M9 10q31 1 37.5 13t6.5 42v237q0 15 -1.5 24t-6.5 14t-13.5 7t-22.5 3v11h137v-11q-28 -2 -35.5 -10.5t-7.5 -37.5v-106h150v106q0 15 -2 24t-7 14t-13.5 7t-22.5 3v11h138v-11q-28 -2 -36 -10.5t-8 -37.5v-242q0 -28 7.5 -38t36.5 -12v-10h-138v10q31 1 38 13t7 42v107
h-150v-112q0 -28 7 -38t36 -12v-10h-137v10z" />
    <glyph glyph-name="I" unicode="I" horiz-adv-x="163" 
d="M9 10q31 1 39.5 11t8.5 39v242q0 30 -9 38.5t-39 9.5v11h146v-11q-26 -1 -37.5 -8.5t-11.5 -39.5v-242q0 -32 11 -40.5t38 -9.5v-10h-146v10z" />
    <glyph glyph-name="J" unicode="J" horiz-adv-x="192" 
d="M137 99q0 -39 -11 -61t-25.5 -32t-28 -12t-18.5 -2q-16 0 -25 4.5t-14 9.5q-9 13 -9 26q0 8 5 18t17 10q13 0 18 -7.5t7 -16t4.5 -16t9.5 -7.5q10 0 14.5 7.5t4.5 28.5v253q0 29 -7.5 38t-36.5 10v11h139v-11q-14 0 -23 -2t-13.5 -7.5t-6 -14.5t-1.5 -24v-203z" />
    <glyph glyph-name="K" unicode="K" horiz-adv-x="355" 
d="M203 361h130v-11q-12 0 -20 -1.5t-16 -5.5t-17 -12t-22 -22l-95 -103l116 -136q24 -29 40 -45t36 -15v-10h-148v10q20 2 26.5 3.5t6.5 10.5q0 6 -7.5 18.5t-18 26.5t-21 27t-16.5 20l-53 57l-13 -11v-102q0 -29 8 -39t37 -11v-10h-139v10q28 1 36.5 11.5t8.5 43.5v237
q0 32 -10.5 39.5t-34.5 8.5v11h139v-11q-14 0 -23 -2t-14 -7.5t-6.5 -14.5t-1.5 -24v-112l67 67t38.5 39.5t17.5 22.5t4 15q0 11 -8.5 13t-26.5 3v11z" />
    <glyph glyph-name="L" unicode="L" horiz-adv-x="300" 
d="M145 350q-26 -1 -35.5 -8.5t-9.5 -39.5v-259q0 -16 8.5 -19t40.5 -3q28 0 48.5 1.5t36 8.5t27 21.5t21.5 41.5h12l-23 -94h-264v10q22 1 31.5 9.5t9.5 40.5v242q0 32 -9 39.5t-32 8.5v11h138v-11z" />
    <glyph glyph-name="M" unicode="M" horiz-adv-x="438" 
d="M425 350q-24 -1 -33.5 -8.5t-9.5 -39.5v-242q0 -32 9.5 -40.5t33.5 -9.5v-10h-138v10q28 1 36.5 11.5t8.5 43.5v246h-1l-124 -311h-8l-123 298v-218q0 -42 9 -55.5t36 -14.5v-10h-114v10q14 1 23 4t14.5 10t7.5 20.5t2 35.5v222q0 16 -2 25t-7.5 14t-14.5 7t-22 2v11h97
l113 -275l109 275h98v-11z" />
    <glyph glyph-name="N" unicode="N" horiz-adv-x="355" 
d="M349 350q-12 -1 -21 -3t-15 -9t-9 -20t-3 -37v-287h-7l-218 298v-212q0 -42 9 -55.5t36 -14.5v-10h-114v10q14 1 23 4t14.5 10t7.5 20.5t2 35.5v240q-8 11 -13.5 17t-10.5 9t-10.5 3.5t-12.5 0.5v11h82l190 -262v182q0 24 -2.5 37.5t-8 20.5t-14.5 9t-21 2v11h116v-11z
" />
    <glyph glyph-name="O" unicode="O" horiz-adv-x="355" 
d="M178 -8q-33 0 -62.5 13t-51.5 37.5t-34.5 59t-12.5 78.5q0 47 14 82.5t36.5 59t51.5 35.5t59 12t58.5 -12t51 -35.5t36.5 -59t14 -82.5q0 -44 -12.5 -78.5t-34 -59t-51 -37.5t-62.5 -13zM178 12q21 0 39.5 9.5t33 29.5t23 52.5t8.5 77.5q0 46 -9 78.5t-24 52t-33.5 28.5
t-37.5 9t-37.5 -9t-33.5 -28.5t-24.5 -52t-9.5 -78.5q0 -45 9 -77.5t23.5 -52.5t33.5 -29.5t39 -9.5z" />
    <glyph glyph-name="P" unicode="P" horiz-adv-x="274" 
d="M8 361h129q26 0 49.5 -5.5t41.5 -17.5t28.5 -30.5t10.5 -44.5q0 -32 -12 -49.5t-17 -23.5q-17 -17 -42 -25.5t-63 -8.5q-17 0 -33 3v-99q0 -30 8.5 -39t37.5 -11v-10h-138v10q15 1 23.5 4.5t12.5 10t4.5 16t0.5 24.5v237q0 28 -7 37t-34 11v11zM100 181q7 -2 14 -2h15
q7 0 21 1.5t28 9t24.5 24.5t10.5 48q0 29 -11.5 45t-27 23.5t-31 9t-23.5 1.5q-11 0 -15.5 -2.5t-4.5 -16.5v-141z" />
    <glyph glyph-name="Q" unicode="Q" horiz-adv-x="355" 
d="M346 -97h-24q-50 0 -94.5 15t-73.5 51l-23 30q-17 5 -37 17.5t-37 34.5t-28.5 53.5t-11.5 75.5q0 47 14 82.5t36.5 59t51.5 35.5t59 12t58.5 -12t51 -35.5t36.5 -59t14 -82.5q0 -45 -12.5 -78.5t-31.5 -56t-41.5 -34.5t-42.5 -14q1 -4 6 -10.5t11 -13.5t12 -13l9 -9
q18 -16 40.5 -26.5t57.5 -11.5v-10zM178 349q-19 0 -37.5 -9t-33.5 -29t-24.5 -52t-9.5 -79q0 -45 9 -77t23.5 -52t33.5 -29.5t39 -9.5q21 0 39.5 9.5t33 29.5t23 52t8.5 77q0 47 -9 79t-24 52t-33.5 29t-37.5 9z" />
    <glyph glyph-name="R" unicode="R" horiz-adv-x="329" 
d="M325 0h-80l-117 168l-28 -1v-107q0 -28 7.5 -38t37.5 -12v-10h-136v10q29 2 34.5 13.5t5.5 41.5v237q0 30 -7 38t-33 10v11h135q16 0 38 -3t41 -13t32.5 -29t13.5 -50q0 -27 -10.5 -44.5t-24.5 -27t-29 -14t-25 -6.5l101 -137q9 -12 18.5 -18.5t25.5 -8.5v-10zM100 187
q15 0 35 2t38 9.5t30.5 23.5t12.5 45q0 27 -10.5 42t-24.5 22t-28.5 8.5t-21.5 1.5q-20 0 -25.5 -4t-5.5 -16v-134z" />
    <glyph glyph-name="S" unicode="S" horiz-adv-x="274" 
d="M231 253h-12q-3 16 -10.5 33t-19 30t-27.5 21.5t-35 8.5t-34 -12t-15 -38q0 -20 12 -35.5t30.5 -29t39.5 -26.5t39.5 -29t30.5 -36.5t12 -48.5q0 -17 -6.5 -35t-19.5 -32t-32.5 -23t-46.5 -9q-28 0 -46 9.5t-29 9.5q-8 0 -12 -5.5t-4 -13.5h-11l-14 117h11
q4 -10 10.5 -26.5t18.5 -32t29.5 -27t42.5 -11.5q29 0 44 19t15 41q0 12 -2.5 22t-10.5 21t-24.5 23.5t-43.5 30.5q-17 11 -31 21.5t-24 22.5t-15.5 27.5t-5.5 35.5q0 23 7.5 40.5t20.5 29t28.5 17.5t32.5 6q23 0 41 -9.5t27 -9.5q11 0 13.5 7t4.5 12h9z" />
    <glyph glyph-name="T" unicode="T" horiz-adv-x="300" 
d="M223 0h-143v10q33 1 39 13.5t6 41.5v273h-26q-20 0 -33.5 -2.5t-22 -10t-14 -21.5t-9.5 -36h-11l1 93h279l4 -93h-13q-4 23 -9 36.5t-13.5 21t-22 10t-33.5 2.5h-26v-278q0 -14 1.5 -23.5t6.5 -15t14 -8t25 -3.5v-10z" />
    <glyph glyph-name="U" unicode="U" horiz-adv-x="355" 
d="M347 350q-14 -2 -23 -4.5t-14.5 -10t-7.5 -20.5t-2 -34v-142q0 -17 -2 -42t-14 -48.5t-37.5 -40t-73.5 -16.5q-46 0 -70.5 17t-36 40.5t-13.5 47t-2 35.5v170q0 15 -1.5 24t-6 14.5t-13 7.5t-22.5 2v11h138v-11q-29 -2 -36.5 -10.5t-7.5 -37.5v-174q0 -13 1.5 -32
t9.5 -36.5t25 -30t49 -12.5q29 0 49.5 11.5t31.5 31.5q5 8 8 24t3 49v148q0 22 -2.5 35.5t-7.5 21t-14 10t-22 2.5v11h114v-11z" />
    <glyph glyph-name="V" unicode="V" horiz-adv-x="355" 
d="M343 350q-9 0 -15 -2t-11 -7.5t-9.5 -15t-10.5 -25.5l-108 -306h-8l-121 299q-8 19 -13.5 30t-11.5 17t-12 8t-15 2v11h131v-11q-21 -1 -29 -3t-8 -16q0 -7 6 -22.5t14 -36.5l75 -184l72 200l5.5 16.5t4.5 21.5q0 17 -11.5 20t-25.5 4v11h101v-11z" />
    <glyph glyph-name="W" unicode="W" horiz-adv-x="465" 
d="M459 350q-18 -3 -26 -9.5t-13 -23.5q-25 -76 -52.5 -160t-50.5 -163h-6q-6 21 -16.5 51.5t-21.5 63t-22 63t-19 52.5l-76 -230h-8q-9 31 -22.5 73l-27 84t-25.5 78.5t-19 56.5q-13 35 -22 49t-29 15v11h121v-11q-17 -1 -25 -4t-8 -14q0 -5 2 -11.5t4 -11.5l70 -205
l52 154l-15 44q-6 17 -11 26.5t-10.5 14.5t-12 6t-16.5 1v11h131v-11q-11 0 -24 -3t-13 -17q0 -8 4 -17t9 -26l65 -186l62 185q2 9 4.5 20.5t2.5 19.5q0 16 -10.5 19.5t-23.5 4.5v11h98v-11z" />
    <glyph glyph-name="X" unicode="X" horiz-adv-x="355" 
d="M342 350q-10 0 -18 -1.5t-15.5 -6.5t-17 -15t-22.5 -28l-71 -99l95 -149q13 -23 23.5 -31t30.5 -10v-10h-147v10q19 2 28.5 4t9.5 15q0 8 -9.5 25t-15.5 27l-47 75l-59 -79q-7 -11 -16 -24.5t-9 -21.5q0 -14 11.5 -16.5t26.5 -4.5v-10h-114v10q10 1 16.5 3.5t13.5 9
t16 18t24 31.5l78 106l-54 87q-19 31 -31.5 48t-22 25t-17.5 10t-19 2v11h150v-11q-20 0 -29 -2.5t-9 -14.5q0 -8 8.5 -25t32.5 -55l22 -33l55 76q9 11 14.5 20t5.5 17q0 12 -11 14.5t-23 2.5v11h116v-11z" />
    <glyph glyph-name="Y" unicode="Y" horiz-adv-x="355" 
d="M346 350q-6 0 -12.5 -2t-14.5 -8t-17.5 -18t-22.5 -34l-73 -122v-106q0 -30 8.5 -39.5t41.5 -10.5v-10h-151v10q18 1 28.5 4t15 9t5.5 16.5t1 25.5v96l-65 104q-18 31 -30 48t-20 25t-14.5 10t-15.5 2v11h139v-11q-18 -1 -26.5 -3t-8.5 -13q0 -5 2.5 -11.5t5.5 -11.5
l73 -121l70 123q3 5 5.5 10t2.5 10q0 12 -11.5 14.5t-23.5 2.5v11h108v-11z" />
    <glyph glyph-name="Z" unicode="Z" horiz-adv-x="300" 
d="M294 96l-12 -96h-277v8l214 332h-108q-26 0 -41.5 -6t-24 -16.5t-12 -23.5t-5.5 -26h-13l11 93h258v-8l-213 -332h127q24 0 38.5 6t23.5 16.5t13.5 24t8.5 28.5h12z" />
    <glyph glyph-name="bracketleft" unicode="[" horiz-adv-x="163" 
d="M103 348q-17 0 -19.5 -9.5t-2.5 -14.5v-367q0 -3 0.5 -7.5t2.5 -9t7 -8t14 -3.5h42v-14h-103v446h103v-13h-44z" />
    <glyph glyph-name="backslash" unicode="\" horiz-adv-x="137" 
d="M28 369l113 -377h-34l-112 377h33z" />
    <glyph glyph-name="bracketright" unicode="]" horiz-adv-x="163" 
d="M62 -71q17 0 19.5 9t2.5 14v368q0 2 -0.5 7t-2.5 9.5t-7.5 8t-14.5 3.5h-42v13h103v-446h-103v14h45z" />
    <glyph glyph-name="asciicircum" unicode="^" horiz-adv-x="231" 
d="M11 162l90 199h30l88 -199h-33l-70 158l-71 -158h-34z" />
    <glyph glyph-name="underscore" unicode="_" horiz-adv-x="246" 
d="M0 -68v27h246v-27h-246z" />
    <glyph glyph-name="grave" unicode="`" horiz-adv-x="163" 
d="M100 277l-76 53q-5 3 -10 9t-5 14q0 1 2 9t15 8q5 0 8 -1.5t13 -10.5l73 -81h-20z" />
    <glyph glyph-name="a" unicode="a" horiz-adv-x="219" 
d="M141 146q-28 -10 -43.5 -20.5t-23.5 -20.5t-10 -19t-2 -16v-1q0 -20 9 -31.5t23 -11.5q8 0 17.5 4t12.5 7q12 5 14.5 11.5t2.5 18.5v79zM218 22q-16 -20 -27.5 -24t-16.5 -4q-3 0 -8.5 1t-10.5 4.5t-9 12t-5 23.5q-13 -14 -31.5 -27.5t-39.5 -13.5q-20 0 -36 14.5
t-16 42.5q0 20 8 34.5t24 26.5t38.5 23t52.5 24v34q0 29 -13 37t-24 8q-13 0 -24.5 -6.5t-11.5 -20.5q0 -6 1.5 -11t1.5 -10q0 -8 -6 -15.5t-17 -7.5t-15.5 8t-4.5 15q0 9 4.5 19.5t14 19.5t24.5 15.5t36 6.5q28 0 43 -9t22 -22.5t8 -28.5t1 -27v-107q0 -12 2 -21.5t13 -9.5
q8 0 12.5 3t9.5 8v-15z" />
    <glyph glyph-name="b" unicode="b" horiz-adv-x="246" 
d="M33 313q0 12 -2.5 19.5t-18.5 7.5h-10v9q18 5 35.5 11t35.5 13l3 -2v-164q1 4 6.5 11.5t14 15t20 12.5t25.5 5q22 0 39 -11t27.5 -28t16 -38.5t5.5 -43.5q0 -18 -6 -41.5t-19.5 -44.5t-37 -35.5t-57.5 -14.5q-9 0 -22.5 2.5t-25.5 7.5t-20.5 11.5t-8.5 14.5v283zM76 38
q0 -7 5.5 -12t13 -8t15.5 -4.5t13 -1.5q21 0 34 10t19.5 25t8.5 32t2 31q0 19 -3.5 38t-11 34.5t-19.5 25t-29 9.5q-6 0 -13.5 -2t-15 -7t-13 -12.5t-6.5 -19.5v-138z" />
    <glyph glyph-name="c" unicode="c" horiz-adv-x="219" 
d="M202 80q-19 -47 -43.5 -66.5t-53.5 -19.5q-15 0 -31.5 7t-30 22t-22.5 38t-9 55q0 34 9.5 59t25.5 42t36 25.5t40 8.5q14 0 28 -5t24 -12q11 -8 16 -19t5 -19q0 -9 -6 -16t-17 -8q-9 -1 -15 7.5t-8 17.5l-4 12q-3 12 -7.5 19t-24.5 7q-7 0 -18 -4t-21.5 -14.5t-18 -29.5
t-7.5 -49q0 -48 23 -76t53 -28q27 0 43 15t28 36z" />
    <glyph glyph-name="d" unicode="d" horiz-adv-x="246" 
d="M242 23q-18 -7 -35 -14t-37 -15l-3 3v33h-1q-6 -12 -20.5 -24t-42.5 -12q-7 0 -22 3.5t-30.5 16.5t-27 37t-11.5 66q0 27 8.5 51t22.5 42.5t33 29.5t40 11q15 0 27 -6t24 -17v85q0 12 -2.5 19.5t-18.5 7.5h-12v9q19 5 36.5 11t36.5 13l1 -2v-309q0 -8 0.5 -14.5t3.5 -10
t10 -5.5t20 -1v-8zM167 181q-3 28 -18 41t-32 13q-11 0 -22 -5t-20 -17t-14.5 -31.5t-5.5 -47.5q0 -60 22 -85.5t47 -25.5q15 0 27.5 9t15.5 23v126z" />
    <glyph glyph-name="e" unicode="e" horiz-adv-x="219" 
d="M208 86q-2 -6 -8 -21.5t-18.5 -31t-31 -27.5t-45.5 -12q-42 0 -67.5 32t-25.5 91q0 38 10 63.5t25.5 41.5t33 22.5t32.5 6.5q35 0 58 -23t28 -77h-153q2 -36 10 -59t19 -36.5t24 -18.5t25 -5q16 0 28.5 6t22 15t15.5 19t11 17zM150 168q-2 10 -4 21.5t-7 20.5t-13.5 15
t-23.5 6q-20 0 -34.5 -13t-20.5 -50h103z" />
    <glyph glyph-name="f" unicode="f" horiz-adv-x="163" 
d="M152 229h-60v-172q0 -13 1 -22t5 -15t13 -9t26 -3v-8h-128v8q25 1 33 9t8 40v172h-40v17h40q0 11 1.5 32.5t10 42.5t26.5 36.5t52 15.5q20 0 34.5 -9.5t14.5 -23.5q0 -12 -7 -18t-15 -6t-13 6.5t-9.5 14.5t-9.5 14.5t-14 6.5q-20 0 -25 -17t-5 -32v-63h61v-17z" />
    <glyph glyph-name="g" unicode="g" horiz-adv-x="246" 
d="M48 -49q0 -12 16 -25.5t58 -13.5q44 0 67.5 15.5t23.5 37.5q0 19 -16.5 22.5t-43.5 4.5q-35 1 -49.5 1.5t-31.5 4.5q-11 -14 -17.5 -24t-6.5 -23zM75 186q0 -16 2.5 -32t8.5 -29.5t15.5 -22t23.5 -8.5q13 0 20.5 6.5t11 15.5t4 17.5t0.5 13.5q0 6 -2 20.5t-7 29.5
t-15 26.5t-26 11.5q-13 0 -24.5 -10t-11.5 -39zM190 212q5 -9 7.5 -19.5t2.5 -30.5q0 -22 -8.5 -37.5t-20.5 -25t-25.5 -14t-24.5 -4.5q-4 0 -13.5 1.5t-12.5 1.5q-8 -1 -19 -13.5t-11 -20.5q0 -10 14 -12t25 -3l63 -4q19 -1 31 -8t18.5 -16t8.5 -18.5t2 -14.5
q0 -23 -13.5 -40.5t-33 -29t-41 -17.5t-38.5 -6q-38 0 -63 16t-25 38q0 18 15 34.5t35 31.5q-11 5 -19 11t-8 18q0 3 0.5 7t5 10t13 16t25.5 26q-47 23 -47 71q0 24 8 41t20.5 28.5t28 16.5t29.5 5q12 0 22 -3t25 -9q8 -4 15 -5t12 -1h39v-21h-42z" />
    <glyph glyph-name="h" unicode="h" horiz-adv-x="246" 
d="M240 0h-105v8q9 1 15.5 3t10.5 6.5t6 13.5t2 24v109q0 27 -9 42.5t-29 15.5q-11 0 -24.5 -7.5t-28.5 -27.5v-132q0 -15 1.5 -24t5.5 -13.5t10.5 -6.5t15.5 -3v-8h-106v8q19 3 25 10.5t6 36.5v258q0 12 -2.5 19.5t-19.5 7.5h-8v9q17 5 34 11t35 13l3 -2v-165h1
q12 21 30 33t41 12q22 0 34.5 -10.5t18 -25t6.5 -29t1 -22.5v-109q0 -15 1.5 -23.5t4.5 -13t9 -6.5t15 -4v-8z" />
    <glyph glyph-name="i" unicode="i" horiz-adv-x="137" 
d="M8 8q12 1 19.5 2.5t12 6t6 13.5t1.5 25v127q0 24 -6 28t-12 4h-9.5t-10.5 -1v8q20 7 39 14.5t37 15.5l3 -2v-194q0 -26 5 -36t31 -11v-8h-116v8zM39 344q0 8 5.5 18.5t18.5 10.5q11 0 18.5 -8.5t7.5 -20.5q0 -11 -7.5 -19t-18.5 -8q-14 0 -19 10t-5 17z" />
    <glyph glyph-name="j" unicode="j" horiz-adv-x="137" 
d="M54 182q0 24 -5.5 28t-11.5 4h-10.5t-11.5 -1v9q20 6 39 13.5t39 15.5l2 -2v-249q0 -24 -4 -45.5t-14 -38t-26.5 -26t-40.5 -9.5q-16 0 -30 7.5t-14 23.5q0 9 6 14.5t13 5.5q8 0 13.5 -5t10 -11t9 -11t11.5 -5q19 0 22 20.5t3 54.5v207zM45 344q0 8 6 18.5t18 10.5
t19 -8.5t7 -20.5q0 -11 -7 -19t-19 -8q-13 0 -18.5 10t-5.5 17z" />
    <glyph glyph-name="k" unicode="k" horiz-adv-x="246" 
d="M3 8q13 2 20.5 4t11.5 5.5t5 10t1 17.5v263q0 18 -4.5 25.5t-18.5 7.5q-5 0 -8 -0.5t-7 -0.5v9q19 5 38 11t39 13l1 -2v-226l2 -1l67 65q5 6 8 10.5t3 8.5q0 5 -5 7.5t-21 2.5v8h102v-9q-10 0 -18.5 -1t-20 -7.5t-27.5 -20.5t-41 -40l-14 -14l75 -106q19 -26 33.5 -32.5
t23.5 -7.5v-8h-107v8h10q2 0 6 2t4 7q0 3 -3 7t-7 11l-68 100h-2v-98q0 -17 8 -22t20 -7h10v-8h-116v8z" />
    <glyph glyph-name="l" unicode="l" horiz-adv-x="137" 
d="M10 8q22 2 30 9.5t8 30.5v260q0 18 -3.5 25.5t-17.5 7.5q-5 0 -9 -0.5t-9 -0.5v9q20 5 39.5 11t38.5 13l2 -2v-325q0 -24 8.5 -30t28.5 -8v-8h-116v8z" />
    <glyph glyph-name="m" unicode="m" horiz-adv-x="383" 
d="M43 184q0 26 -6 30.5t-11 4.5q-11 0 -17 -2v9q18 6 35 11.5t35 13.5l2 -1v-41q23 19 40 30.5t37 11.5q23 0 35.5 -14t16.5 -32q4 5 11 12.5t17.5 15t23 13t27.5 5.5q19 0 30.5 -9.5t18 -23.5t8.5 -31.5t2 -32.5v-113q0 -8 2 -18.5t19 -13.5l12 -1v-8h-107v8q18 3 25.5 8
t7.5 32v114q0 10 -0.5 21t-4.5 20t-11.5 14.5t-20.5 5.5q-20 0 -33 -9.5t-21 -23.5v-138q0 -16 2.5 -24.5t7.5 -13t11 -5.5t14 -1v-8h-110v8q16 1 24.5 7t8.5 32v119q0 26 -7 41.5t-26 15.5q-13 0 -23.5 -4.5t-18 -10.5t-11.5 -11.5t-4 -6.5v-153q0 -20 10 -24.5t24 -4.5v-8
h-110v8q15 0 25 5.5t10 32.5v138z" />
    <glyph glyph-name="n" unicode="n" horiz-adv-x="246" 
d="M39 184q0 26 -5.5 30.5t-10.5 4.5q-13 0 -15 -2v9q16 6 33.5 11.5t34.5 13.5l4 -1v-43q18 19 33.5 31.5t37.5 12.5q9 0 19 -3.5t18.5 -12.5t14 -25t5.5 -41v-125q0 -19 6.5 -26.5t23.5 -9.5v-8h-102v8q7 1 12.5 2t9.5 5.5t6.5 13.5t2.5 25v114q0 25 -7.5 39t-29.5 14
q-20 0 -49 -31v-153q0 -14 6.5 -20.5t26.5 -8.5v-8h-105v8q17 2 23.5 9.5t6.5 31.5v135z" />
    <glyph glyph-name="o" unicode="o" horiz-adv-x="246" 
d="M120 251q49 0 80.5 -33.5t31.5 -93.5q0 -20 -6.5 -43t-20 -42.5t-34.5 -32t-49 -12.5q-24 0 -43.5 10t-34 27.5t-22.5 41.5t-8 51q0 25 7.5 48t21 40.5t33 28t44.5 10.5zM129 10q9 0 19.5 4.5t19 15.5t14 30.5t5.5 48.5q0 25 -5 48t-14 40t-22 27.5t-29 10.5
q-24 0 -41 -21t-17 -64q0 -15 2.5 -38.5t10 -46t21 -39t36.5 -16.5z" />
    <glyph glyph-name="p" unicode="p" horiz-adv-x="246" 
d="M37 184q0 17 -3 23.5t-16 6.5h-13v10q17 5 34.5 12t36.5 15l3 -1v-40l1 -1q3 6 9 13t15 13.5t20.5 11t26.5 4.5q32 0 56.5 -31.5t24.5 -86.5q0 -23 -6.5 -48t-19.5 -45t-32.5 -33t-45.5 -13q-15 0 -26 5.5t-23 18.5v-86q0 -26 7.5 -33.5t34.5 -7.5v-9h-118v9
q24 2 29 11.5t5 26.5v255zM79 48q0 -9 14.5 -22.5t34.5 -13.5q6 0 16.5 3t20.5 14t17 31.5t7 56.5q0 5 -1.5 21.5t-7.5 34t-18.5 31.5t-35.5 14q-13 0 -29 -10t-18 -26v-134z" />
    <glyph glyph-name="q" unicode="q" horiz-adv-x="246" 
d="M204 249l4 2l1 -3v-325q0 -20 7 -25t24 -9v-7h-116v9q28 1 35.5 11t7.5 30v102h-1q-7 -13 -28.5 -26.5t-44.5 -13.5q-34 0 -58 29.5t-24 92.5q0 28 8.5 52.5t23.5 43t35 29t43 10.5q19 0 30.5 -5.5t25.5 -13.5zM167 181q0 6 -0.5 15t-5 18t-14 15t-27.5 6
q-29 0 -47.5 -27.5t-18.5 -77.5q0 -19 3.5 -37t11.5 -32.5t20 -23.5t29 -9q5 0 11 1t12 3q20 8 23 16t3 22v111z" />
    <glyph glyph-name="r" unicode="r" horiz-adv-x="163" 
d="M37 182q0 24 -5.5 28t-11.5 4q-12 0 -17 -1v9q19 6 37 13.5t36 15.5l4 -1v-49q17 29 30.5 39.5t27.5 10.5q13 0 20 -8t7 -21q0 -11 -5 -18t-14 -7q-6 0 -10.5 3t-8.5 7t-7.5 7t-7.5 3q-5 0 -10.5 -4.5t-10 -11.5t-8 -14.5t-3.5 -14.5v-123q0 -28 10.5 -34t29.5 -7v-8
h-117v8q19 4 26.5 9.5t7.5 28.5v136z" />
    <glyph glyph-name="s" unicode="s" horiz-adv-x="192" 
d="M148 171q-8 42 -22.5 55t-31.5 13q-21 0 -30 -12.5t-9 -23.5q0 -8 4 -19t18 -20l53 -35q18 -12 29.5 -25.5t11.5 -38.5q0 -18 -6.5 -31.5t-17 -22t-23 -13t-24.5 -4.5q-17 0 -31.5 5.5t-24.5 4.5q-9 0 -12 -7h-6v86h7q2 -11 5.5 -24t10.5 -24.5t18.5 -19.5t30.5 -8
q12 0 25.5 8t13.5 31q0 25 -26 41l-28 18q-23 14 -40 31.5t-17 47.5q0 11 4 23t12 21.5t21 16t31 6.5q17 0 28 -5.5t18 -5.5q4 0 8 7h5l2 -76h-7z" />
    <glyph glyph-name="t" unicode="t" horiz-adv-x="137" 
d="M125 229h-49v-157q0 -6 0.5 -14.5t2.5 -16t7.5 -13t14.5 -5.5q12 0 18.5 7t11.5 12l6 -5q-9 -19 -24.5 -31t-32.5 -12q-20 0 -33 14.5t-13 55.5v165h-25q-2 0 -2 3q0 5 6.5 8.5t14.5 12.5q7 8 12.5 15t10 13.5t9.5 14.5t12 19q4 0 4 -6v-63h49v-17z" />
    <glyph glyph-name="u" unicode="u" horiz-adv-x="246" 
d="M237 20q-21 -6 -37 -12t-33 -13l-1 2v44l-20 -23q-16 -16 -31 -20t-21 -4q-8 0 -18 3t-19 11t-15.5 22t-6.5 35v138q0 24 -9.5 29t-20.5 6v8h71v-178q0 -3 1.5 -10t5.5 -14t11.5 -12.5t19.5 -5.5q11 0 21 5.5t21 14.5q4 3 5.5 8.5t1.5 19.5v127q0 17 -5 25.5t-30 9.5v10
h78v-187q0 -15 4 -24t27 -8v-7z" />
    <glyph glyph-name="v" unicode="v" horiz-adv-x="246" 
d="M235 237q-13 -2 -18 -10t-15 -31l-62 -176q-4 -11 -7.5 -19.5t-6.5 -8.5t-5 4t-7 22q-5 13 -15 40t-21.5 58t-23 59t-17.5 42q-6 13 -13 16.5t-15 3.5v9h96v-9q-8 -1 -14.5 -3t-6.5 -13q0 -13 3 -20l50 -139q6 20 15 44.5t17.5 47t14 40.5t5.5 25q0 10 -6.5 14t-16.5 4v9
h69v-9z" />
    <glyph glyph-name="w" unicode="w" horiz-adv-x="355" 
d="M341 246v-9q-7 -2 -10.5 -7.5t-9.5 -21.5l-67 -189q-7 -17 -9.5 -22t-4.5 -5t-4.5 5t-7.5 19l-45 129l-55 -131q-10 -22 -12 -22q-3 0 -5.5 5t-7.5 20l-66 186q-7 20 -11.5 26.5t-15.5 7.5v9h90v-9q-10 -1 -17 -4t-7 -14q0 -7 5 -23t12.5 -37.5t16.5 -47t18 -51.5l44 109
q-7 23 -11.5 36t-9 20t-9.5 9t-13 3v9h99v-9q-12 -2 -20 -5t-8 -15q0 -8 2.5 -14.5t8.5 -22.5l39 -116l44 120q4 11 6 20.5t2 14.5q0 11 -5.5 13.5t-16.5 4.5v9h61z" />
    <glyph glyph-name="x" unicode="x" horiz-adv-x="246" 
d="M109 108l-40 -67l-5.5 -11t-3.5 -12q2 -8 7.5 -9t12.5 -1v-8h-71v8q10 2 16.5 5.5t19.5 23.5l55 89l-46 79q-8 12 -13.5 19t-10 10t-9 3h-10.5v9h103v-9q-7 0 -14 -2t-7 -11q0 -4 3.5 -11.5t8 -15.5t9.5 -16.5t8 -13.5q11 18 17.5 28t10 16t4.5 8.5t1 4.5q0 9 -7 11
t-13 2v9h78v-9q-16 0 -26.5 -9.5t-13.5 -14.5l-40 -65l63 -107q14 -24 23.5 -28.5t17.5 -4.5v-8h-100v8q11 0 15 3t4 11q0 7 -2.5 11.5t-4.5 6.5z" />
    <glyph glyph-name="y" unicode="y" horiz-adv-x="246" 
d="M234 237q-5 -1 -11.5 -4t-12.5 -20l-75 -223q-19 -55 -38 -82t-47 -27q-17 0 -26 10.5t-9 20.5q0 3 3 13.5t21 10.5q9 0 19 -4.5t15 -4.5q10 0 18.5 12t14.5 27t9.5 28.5t3.5 16.5t-4 13t-9 21.5l-10 23t-8 17.5l-56 134q-4 11 -12.5 14t-11.5 4v8h100v-9q-8 0 -18 -2
t-10 -13q0 -6 2 -11.5t3 -9.5l56 -137l39 121q4 11 7.5 22t3.5 15q0 16 -24 15v9h67v-9z" />
    <glyph glyph-name="z" unicode="z" horiz-adv-x="219" 
d="M199 0h-187v8l132 221h-68q-26 0 -32 -13t-9 -35h-8l1 65h170v-9l-132 -220h68q19 0 30.5 3t17.5 10t9 18.5t6 27.5l10 -2z" />
    <glyph glyph-name="braceleft" unicode="{" horiz-adv-x="237" 
d="M91 75q0 26 -8 40t-34 22q26 7 34 21t8 40v97q0 24 5.5 39t16 23.5t25 11t33.5 2.5v-6q-26 -7 -34.5 -23t-8.5 -44v-92q0 -29 -8 -45.5t-37 -23.5v-2q29 -7 37 -23.5t8 -46.5v-91q0 -29 8.5 -44.5t34.5 -22.5v-6q-19 0 -33.5 2.5t-25 11t-16 23.5t-5.5 40v97z" />
    <glyph glyph-name="bar" unicode="|" horiz-adv-x="111" 
d="M0 0v278h57v-278h-57z" />
    <glyph glyph-name="braceright" unicode="}" horiz-adv-x="237" 
d="M146 198q0 -26 7.5 -40t33.5 -21q-26 -8 -33.5 -22t-7.5 -40v-98q0 -24 -5.5 -39t-16 -23.5t-26 -11t-34.5 -2.5v6q27 7 36 22.5t9 44.5v91q0 30 8 46.5t37 24.5v2q-29 6 -37 22.5t-8 45.5v92q0 28 -9 44t-36 23v6q19 0 34.5 -2.5t26 -11t16 -23.5t5.5 -39v-97z" />
    <glyph glyph-name="asciitilde" unicode="~" horiz-adv-x="394" 
d="M55 503h318l-26 -41h-94q12 -13 19 -27.5t11 -30.5h89l-23 -41h-65q-3 -29 -21 -60q-9 -15 -25.5 -27.5t-36 -21.5t-41.5 -13.5t-43 -4.5q0 -5 6 -13.5t16 -20.5q38 -48 80 -97t80 -97v-3q-18 0 -33 -0.5t-33 -0.5l-142 163l-48 56v42q9 0 17.5 -0.5t19.5 -0.5
q111 0 137 72q4 8 4 27h-192q24 41 26 41h161q-16 33 -57 50q-32 8 -50 8h-80z" />
    <glyph glyph-name="HIN_HALF_JHA" unicode="&#xcc;" 
d="M45 745h-62l32 44h62z" />
    <glyph glyph-name="multiply" unicode="&#xd7;" horiz-adv-x="267" 
d="M230 25l-88 87l-89 -87l-19 19l89 88l-89 89l19 19l89 -89l88 89l20 -19l-88 -89l88 -88z" />
    <glyph glyph-name="divide" unicode="&#xf7;" horiz-adv-x="241" 
d="M112 182q-13 0 -19.5 8.5t-6.5 18t6.5 18t19.5 8.5t19.5 -8.5t6.5 -18t-6.5 -18t-19.5 -8.5zM0 125v26h215v-26h-215zM112 39q-13 0 -19.5 8.5t-6.5 18t6.5 18t19.5 8.5t19.5 -8.5t6.5 -18t-6.5 -18t-19.5 -8.5z" />
    <glyph glyph-name="HIN_NA_HALANT" unicode="&#xfc;" horiz-adv-x="518" 
 />
    <glyph glyph-name="HIN_HALF_CHA" unicode="&#xc01;" horiz-adv-x="284" 
d="M246 250q0 -5 -3.5 -9.5t-9.5 -4.5q-2 0 -8.5 4.5t-17 10t-23.5 10t-26 4.5q-35 0 -58 -17.5t-34.5 -43.5t-11 -57t12 -57t34 -43.5t56.5 -17.5q15 0 27.5 4.5t22 9.5t15.5 9.5t9 4.5q5 0 8.5 -4.5t3.5 -9.5q0 -7 -9 -14t-20.5 -13t-23.5 -10t-18 -5q-7 -1 -13.5 -1
h-14.5q-47 0 -79 22t-48 54.5t-16 70.5t16 70.5t49 54.5t83 22q8 0 24.5 -3.5t32.5 -9.5t28 -14t12 -17z" />
    <glyph glyph-name="HIN_HALF_CHHA" unicode="&#xc02;" horiz-adv-x="329" 
d="M277 147q0 -30 -11.5 -57t-31.5 -47t-47 -31.5t-57 -11.5t-57 11.5t-47 31.5t-31.5 47t-11.5 57t11.5 57t31.5 47t47 31.5t57 11.5t57 -11.5t47 -31.5t31.5 -46.5t11.5 -57.5zM246 157q0 22 -9.5 42t-25 35t-36.5 24t-44 9t-43.5 -9t-36.5 -24t-25.5 -35t-9.5 -42
q0 -24 10 -43.5t26.5 -34t37 -22.5t41.5 -8q23 0 44 8.5t36.5 23t25 34t9.5 42.5z" />
    <glyph glyph-name="HIN_HALF_JA" unicode="&#xc03;" horiz-adv-x="185" 
d="M131 229q0 -27 -20 -45.5t-47 -18.5q-26 0 -45 19t-19 45t19.5 45.5t45.5 19.5q27 0 46.5 -19t19.5 -46zM131 65q0 -27 -19.5 -46t-46.5 -19q-26 0 -45.5 19t-19.5 45q0 25 20 45t45 20q28 0 47 -18t19 -46zM110 233q0 17 -13.5 29t-29.5 12q-18 0 -31.5 -12t-13.5 -30
q0 -17 13 -27.5t29 -10.5q17 0 31.5 10.5t14.5 28.5zM110 68q0 17 -13 28.5t-30 11.5q-18 0 -31.5 -12t-13.5 -29t13 -27.5t29 -10.5q17 0 31.5 10.5t14.5 28.5z" />
    <glyph glyph-name="HIN_HALF_NYA" unicode="&#xc05;" horiz-adv-x="420" 
d="M368 172q0 -44 -15 -76t-40.5 -53.5t-59 -32t-70.5 -10.5q-36 0 -69.5 10.5t-58.5 32.5t-40 54.5t-15 76.5q0 16 5 37t15.5 39.5t27.5 31t40 12.5q24 0 43 -18.5t19 -43.5q0 -26 -18 -46.5t-44 -20.5q-19 0 -32.5 8t-27.5 23l-2 -10q-1 -4 -1 -8v-6q0 -36 15 -60t38 -38
t51 -19.5t54 -5.5t54.5 5.5t52 19.5t38.5 38t15 60q0 13 -4.5 27t-12 25t-19 18.5t-24.5 7.5q-17 0 -23 -10t-6 -22q0 -15 7 -25t16 -17t16 -13t7 -14q0 -5 -2.5 -7.5l-4.5 -4.5q-6 -2 -7 -2h-122q-2 0 -6 2q-5 3 -5 10q0 8 5 11q4 2 6 2h94q-5 4 -10 8.5t-9 9.5
q-8 9 -13.5 21.5t-5.5 29.5q0 26 17 43t42 17q22 0 38.5 -12t28 -29.5t17 -38t5.5 -37.5zM124 225q0 13 -11 24t-25 11q-12 0 -21 -4.5t-15.5 -11.5t-10 -14t-3.5 -12q6 -8 14 -14q7 -5 16 -9.5t20 -4.5q14 0 25 8.5t11 26.5z" />
    <glyph glyph-name="HIN_HALF_TTA" unicode="&#xc06;" horiz-adv-x="407" 
d="M355 101q0 -31 -17.5 -50.5t-43 -31t-56 -15.5t-55.5 -4q-36 0 -69.5 10.5t-58.5 32.5t-40 54.5t-15 76.5q0 16 5 37t15.5 39.5t27.5 31t40 12.5q24 0 43 -18.5t19 -43.5q0 -26 -18 -46.5t-44 -20.5q-19 0 -32.5 8t-27.5 23l-2 -10q-1 -4 -1 -8v-6q0 -36 15 -60t38 -38
t51 -19.5t54 -5.5q19 0 43.5 2t46.5 9t37 19t15 33q0 9 -4.5 16t-10.5 12q-8 -7 -26.5 -17.5t-32.5 -10.5h-105q-2 0 -6 2q-5 3 -5 11t5 11q4 2 6 2h94q18 0 32 6t14 7t-5 2t-12.5 3t-16.5 6.5t-17 12.5q-21 21 -23.5 42.5t6.5 39t26.5 28.5t36.5 11q31 0 50.5 -23t19.5 -52
q0 -16 -4 -28t-9 -20q-4 -10 -12 -16q8 -5 14 -12q5 -7 10 -17.5t5 -26.5zM308 169q13 13 18 29.5t1 30.5t-15 23.5t-29 9.5q-17 0 -30 -13t-13 -27q0 -18 10.5 -29t23.5 -16q17 -7 34 -8zM124 225q0 13 -11 24t-25 11q-12 0 -21 -4.5t-15.5 -11.5t-10 -14t-3.5 -12
q6 -8 14 -14q7 -5 16 -9.5t20 -4.5q14 0 25 8.5t11 26.5z" />
    <glyph glyph-name="HIN_HALF_TTHA" unicode="&#xc07;" horiz-adv-x="358" 
d="M307 -14q0 -6 -4 -12t-10.5 -9.5t-14 -3t-13.5 6.5t-7 17.5t-1 24t-2 25.5t-12 23q-26 -26 -58.5 -42t-75.5 -16q-51 0 -79 23.5t-30 52t24.5 52t84.5 23.5q35 0 68 -11t65 -40q17 16 23.5 38.5t6.5 39.5q0 27 -16 50t-47 23q-16 0 -27 -7t-18 -15q-4 -5 -7.5 -10.5
t-5.5 -10.5q0 -2 -2 -5t-6 -3q-5 0 -7.5 3t-2.5 5q-3 14 -10 23q-6 9 -16 16.5t-26 7.5q-12 0 -20.5 -7t-12.5 -16t-3.5 -18.5t5.5 -14.5q3 -4 0.5 -8t-6.5 -8q-3 -3 -8.5 -2t-9.5 4q-8 8 -12 26t1 36.5t20 32.5t44 14q16 0 28 -7.5t20 -16.5q8 -10 15 -23l8 12t9 11
q8 9 20.5 16.5t28.5 7.5q48 0 69 -31t21 -85q0 -17 -6 -34.5t-14 -31.5q-5 -8 -9.5 -16.5t-9.5 -16.5q7 -8 13 -17t11 -17q9 -14 16.5 -30t7.5 -29zM221 82q-26 26 -56 34.5t-56 8.5q-39 0 -58.5 -12t-19.5 -26t19.5 -26t58.5 -12q13 0 28 1t30 5t29 10t25 17z" />
    <glyph glyph-name="HIN_HALF_DDA" unicode="&#xc08;" horiz-adv-x="595" 
d="M543 97q0 -31 -21.5 -52.5t-53.5 -21.5q-12 0 -24.5 5t-22 13t-15.5 19.5t-6 24.5q0 12 4.5 23t9.5 19q5 9 15 17h-85q0 -30 -11.5 -56.5t-31 -46t-46.5 -30.5t-58 -11t-58 11t-46.5 30.5t-31 46t-11.5 56.5h-39q-2 0 -6 2q-5 3 -5 11q0 7 5 10q4 2 6 2h40q8 45 38.5 76
t72.5 41q-14 12 -27 24.5t-17 15.5q-11 11 -10 22.5t8.5 18.5t19.5 7t24 -12q3 -3 6.5 -13.5l7.5 -22.5l7.5 -22.5t6.5 -13.5h4q4 3 13 11t21 19t26 24.5t28 27.5l71 70q5 5 13 2.5t14 -9t8 -15t-5 -15.5l-58 -44q-24 -18 -51.5 -38.5t-47.5 -34.5q45 -8 78 -39.5t41 -79.5
h120q12 8 20 18q8 8 14 18t6 21q0 17 -12 31t-23 14q-25 0 -35.5 -12.5t-10.5 -29.5q0 -4 -3.5 -6.5t-8 -2t-8 5t-3.5 14.5q0 16 6.5 27t16.5 18.5t22.5 11t23.5 3.5q27 0 45 -19.5t18 -45.5q0 -16 -6.5 -29t-14.5 -22q-10 -12 -20 -19q5 0 14 -4.5t17.5 -13.5t15 -21.5
t6.5 -28.5zM312 169q-3 21 -14 38t-27 30t-35.5 20t-38.5 7t-38 -7.5t-35 -20t-27 -30t-14 -37.5h229zM83 144q3 -20 14 -37t26.5 -29.5t34.5 -20t39 -7.5q19 0 38.5 7.5t35.5 20t27 29.5t14 37h-229zM468 62q24 0 34 13t8.5 28t-14 28t-31.5 13q-9 0 -19 -13t-13.5 -28
t3.5 -28t32 -13z" />
    <glyph glyph-name="HIN_HALF_DDHA" unicode="&#xc09;" horiz-adv-x="423" 
d="M371 82q0 -32 -21.5 -57t-63.5 -25q-20 0 -35 8.5t-26 19.5t-21 29q-5 -8 -10.5 -15.5t-11.5 -13.5q-11 -11 -25.5 -19.5t-32.5 -8.5q-21 0 -37.5 9t-27.5 24t-17 34.5t-6 40.5q0 37 11 68l-36 1q0 -1 -5.5 1.5t-5.5 10.5q0 7 5 10q4 2 6 2h47q15 26 35 43t40.5 27.5
t38 14.5t27.5 4l-16 56q0 11 8 18.5t19 7.5q10 0 17.5 -7.5t7.5 -18.5l-15 -54q25 0 50.5 -6.5t36.5 -17.5q6 -6 6 -12t-3.5 -10.5t-8.5 -7.5t-9 -3q-3 0 -12 5t-21.5 11.5t-28 11.5t-31.5 5q-29 0 -61 -17t-52 -50h268q1 0 5 -2q6 -5 6 -10q0 -8 -5.5 -10t-5.5 -3l-279 1
q-8 -26 -8 -48q0 -41 20.5 -60.5t41.5 -19.5q25 0 38 10.5t19 23.5q7 14 7 34q0 2 2 4q4 4 9 4q4 0 8 -4l3 -4q2 -21 8 -34t19.5 -23.5t39.5 -10.5q18 0 37.5 11.5t19.5 31.5q0 11 -7.5 22t-20.5 11q-11 0 -15 -4t-6.5 -8.5t-5 -8t-9.5 -3.5q-18 0 -18 17q0 16 16.5 24.5
t30.5 8.5q29 0 48 -20t19 -49z" />
    <glyph glyph-name="HIN_HALF_NNA" unicode="&#xc0a;" horiz-adv-x="595" 
d="M543 129q0 -31 -21.5 -52t-53.5 -21q-12 0 -24.5 4.5t-22 13t-15.5 19.5t-6 24q0 12 4.5 23t9.5 19q6 10 15 17l-354 1q-8 -26 -8 -48q0 -41 20.5 -60.5t41.5 -19.5q25 0 38 10.5t19 23.5q7 14 7 34q0 2 2 4q4 4 9 4q4 0 8 -4l3 -4q2 -21 8 -34t19.5 -23.5t39.5 -10.5
q18 0 37.5 11.5t19.5 31.5q0 11 -7.5 22t-20.5 11q-11 0 -15 -4t-6.5 -8.5t-5 -8t-9.5 -3.5q-18 0 -18 17q0 16 16.5 24.5t30.5 8.5q29 0 48 -20t19 -49q0 -32 -21.5 -57t-63.5 -25q-20 0 -35 8.5t-26 19.5t-21 29q-5 -8 -10.5 -15.5t-11.5 -13.5q-11 -11 -25.5 -19.5
t-32.5 -8.5q-21 0 -37.5 9t-27.5 24t-17 34.5t-6 40.5q0 41 10 68l-35 1q0 -1 -5.5 1.5t-5.5 10.5q0 7 5 10q4 2 6 2h45q12 26 29 42.5t33 26.5q9 5 18 9.5t19 6.5l-16 61q0 11 7.5 19t18.5 8t19 -8t8 -19l-16 -55q1 1 9 1.5t17.5 0.5t17.5 -0.5t9 -1.5l-15 54
q0 11 7.5 18.5t18.5 7.5t18 -7.5t7 -18.5l-15 -56q13 -2 30 -7t28 -16q6 -6 6.5 -12.5t-3 -11t-9 -7.5t-9.5 -3q-3 0 -12 5.5t-22 12t-28.5 12t-31.5 5.5q-29 0 -61 -17t-52 -50h377q12 8 20 18q8 8 14 18t6 21q0 17 -12 31t-23 14q-25 0 -35.5 -12.5t-10.5 -29.5
q0 -4 -3.5 -6.5t-8 -2t-8 5t-3.5 14.5q0 16 6.5 27t16.5 18.5t22.5 11t23.5 3.5q27 0 45 -19.5t18 -45.5q0 -16 -6.5 -29t-14.5 -22q-10 -12 -20 -19q5 0 14 -4.5t17.5 -13.5t15 -21.5t6.5 -28.5zM468 94q24 0 34 13t8.5 28t-14 28t-31.5 13q-9 0 -19 -13t-13.5 -28t3.5 -28
t32 -13z" />
    <glyph glyph-name="HIN_HALF_TA" unicode="&#xc0b;" horiz-adv-x="771" 
d="M765 128q0 -26 -6.5 -49.5t-19.5 -41t-33 -27.5t-46 -10q-38 0 -59 18.5t-32 41.5q-5 11 -8 20q-10 -35 -34.5 -57.5t-64.5 -22.5q-38 0 -59 18.5t-32 41.5q-4 6 -7 16q-10 -33 -33.5 -54.5t-62.5 -21.5q-21 0 -37 10t-27 22q-11 13 -21 32q-5 -9 -10.5 -17t-11.5 -15
q-11 -12 -26.5 -22t-36.5 -10q-34 0 -56 13t-32.5 32.5t-9.5 42t11.5 42t30.5 32.5t49 13q31 0 45 14.5t14 31.5t-12 31.5t-33 14.5t-36 -12t-15 -33q0 -12 -8.5 -18t-18 -5.5t-18 7.5t-8.5 19q0 16 8.5 28.5t21.5 21.5t29 14t31 5q42 0 64.5 -22.5t24 -49t-20 -49
t-68.5 -22.5q-29 0 -43.5 -16t-14 -35t16.5 -35t48 -16q21 0 35 10t23 22q10 12 16 33q0 2 2 4q4 4 9 4q4 0 8 -4l3 -4q4 -18 16 -33q8 -12 22.5 -22t35.5 -10q27 0 44.5 14.5t26 36t7.5 47t-12 47t-32 36t-52 14.5q-16 0 -23 8t-7 17t6 17t17 8q33 0 57.5 -17t41 -43.5
t24 -59t4.5 -63.5q4 -9 11.5 -20t18.5 -20t26 -15.5t36 -6.5q27 0 44.5 14.5t26 36.5t7.5 47.5t-12 47.5t-32 36.5t-52 14.5q-17 0 -25 7.5t-8 16.5t7 16.5t19 7.5q33 0 57 -16t40.5 -41t24.5 -54t8 -55q0 -3 -0.5 -6t-0.5 -6q4 -9 10.5 -20.5t18 -22t27.5 -17.5t38 -7
q27 0 44.5 14.5t26 36.5t7.5 47.5t-12 47.5t-32 36.5t-52 14.5q-17 0 -25 7.5t-8 16.5t7 16.5t19 7.5q33 0 57 -16t40.5 -41t24.5 -54t8 -55z" />
    <glyph glyph-name="HIN_HALF_THA" unicode="&#xc0c;" horiz-adv-x="358" 
d="M307 -14q0 -6 -4 -12t-10.5 -9.5t-14 -3t-13.5 6.5t-7 17.5t-1 24t-2 25.5t-12 23q-26 -26 -58.5 -42t-75.5 -16q-51 0 -79 23.5t-30 52t24.5 52t84.5 23.5q35 0 68 -11t65 -40q17 16 23.5 38.5t6.5 39.5q0 27 -16 50t-47 23q-16 0 -27 -7t-18 -15q-4 -5 -7.5 -10.5
t-5.5 -10.5q0 -2 -2 -5t-6 -3q-5 0 -7.5 3t-2.5 5q-3 14 -10 23q-6 9 -16 16.5t-26 7.5q-12 0 -20.5 -7t-12.5 -16t-3.5 -18.5t5.5 -14.5q3 -4 0.5 -8t-6.5 -8q-3 -3 -8.5 -2t-9.5 4q-8 8 -12 26t1 36.5t20 32.5t44 14q16 0 28 -7.5t20 -16.5q8 -10 15 -23l8 12t9 11
q8 9 20.5 16.5t28.5 7.5q48 0 69 -31t21 -85q0 -17 -6 -34.5t-14 -31.5q-5 -8 -9.5 -16.5t-9.5 -16.5q7 -8 13 -17t11 -17q9 -14 16.5 -30t7.5 -29zM221 82q-26 26 -56 34.5t-56 8.5q-39 0 -58.5 -12t-19.5 -26t19.5 -26t58.5 -12q13 0 28 1t30 5t29 10t25 17z" />
    <glyph glyph-name="HIN_HALF_DHA" unicode="&#xc0e;" horiz-adv-x="397" 
d="M346 124q0 -53 -22.5 -88.5t-73.5 -35.5q-23 0 -38 8.5t-25 19.5q-11 13 -18 28q-9 -25 -31 -40.5t-50 -15.5q-37 0 -62.5 25.5t-25.5 62.5q0 36 25.5 61.5t62.5 25.5q32 0 55.5 -20t30.5 -50q3 -7 8.5 -16.5t14.5 -18.5t22 -15t31 -6q21 0 34.5 8t21.5 21t11 29t3 32
q0 28 -11.5 67t-34.5 75t-59.5 61t-85.5 25q-17 0 -24.5 8t-7.5 17t6.5 17t18.5 8q42 0 82.5 -26t72 -68t50.5 -94.5t19 -104.5zM144 100q0 21 -16.5 36t-39.5 15q-24 0 -40 -15t-16 -36t16 -36t40 -15q23 0 39.5 15t16.5 36z" />
    <glyph glyph-name="HIN_HALF_NA" unicode="&#xc0f;" horiz-adv-x="397" 
d="M146 485q-5 -5 -10 -5.5t-10.5 -0.5t-12.5 -3t-17 -13q-16 -16 -23 -32t-9.5 -29.5t-3 -22.5t-2.5 -11t-9.5 -2t-9.5 2q-5 5 -4 31t10.5 54.5t29 51.5t50.5 23q8 0 15 -4t11 -10.5t3 -14t-8 -14.5zM346 124q0 -53 -22.5 -88.5t-73.5 -35.5q-23 0 -38 8.5t-25 19.5
q-11 13 -18 28q-9 -25 -31 -40.5t-50 -15.5q-37 0 -62.5 25.5t-25.5 62.5q0 36 25.5 61.5t62.5 25.5q32 0 55.5 -20t30.5 -50q3 -7 8.5 -16.5t14.5 -18.5t22 -15t31 -6q21 0 34.5 8t21.5 21t11 29t3 32q0 42 -14 81.5t-36 69.5t-49.5 48.5t-53.5 18.5q-17 0 -25 8t-8 17
t7 17t19 8q34 0 67.5 -25t59.5 -65t42.5 -90.5t16.5 -102.5zM144 100q0 21 -16.5 36t-39.5 15q-24 0 -40 -15t-16 -36t16 -36t40 -15q23 0 39.5 15t16.5 36z" />
    <glyph glyph-name="HIN_HALF_PA" unicode="&#xc10;" horiz-adv-x="387" 
d="M233 249q-15 0 -26 -6.5t-17.5 -14t-10 -14l-3.5 -6.5q1 -2 -1.5 -5t-6.5 -3q-5 0 -7.5 3t-2.5 5q-4 15 -14 26q-8 10 -20 18.5t-31 8.5q-18 0 -27 -6t-13 -13t-4 -18t-6.5 -16t-15 -5t-15 5t-6.5 16q0 17 8.5 29.5t21.5 20.5t27 12t26 4q19 0 33 -7t24 -15
q5 -5 10 -10.5t9 -11.5q4 10 15 21q8 8 21 14.5t32 6.5q35 0 58 -21.5t34 -53.5t10.5 -69t-13 -69t-37 -53.5t-61.5 -21.5q-21 0 -35 7.5t-22 17.5q-9 9 -16 25q-8 -22 -28 -36t-45 -14q-32 0 -55 23t-23 55t23 55.5t55 23.5q29 0 50 -18t26 -45q5 -13 21.5 -29t48.5 -16
q31 0 51 15t29 37t8.5 48t-10 48t-27.5 37t-42 15zM124 89q0 17 -13 29.5t-32 12.5t-32.5 -12.5t-13.5 -29.5t13.5 -28.5t32.5 -11.5t32 11.5t13 28.5z" />
    <glyph glyph-name="HIN_HALF_BA" unicode="&#xc12;" horiz-adv-x="411" 
d="M336 89q0 11 -4.5 15.5t-9.5 6.5q-8 2 -14 1q-7 0 -12 5.5t-5.5 11.5t4 11.5t15.5 5.5q17 0 28.5 -11t16.5 -27t3.5 -35t-11.5 -35t-28.5 -27t-46.5 -11q-26 0 -42.5 10t-26.5 23q-11 16 -18 34q-7 -17 -20 -34q-11 -13 -28.5 -23t-43.5 -10q-16 0 -32.5 6t-30 17t-22 26
t-8.5 34q0 16 5.5 28t12.5 21q7 10 18 18q10 10 30 14.5t40 9.5t34.5 14t14.5 30q0 25 -18.5 37t-33.5 12q-16 0 -26 -7.5t-16 -15.5q-7 -9 -10 -23q0 -11 -7 -17.5t-15.5 -7.5t-15.5 5t-7 21q0 18 9.5 31.5t23.5 22.5t28.5 13.5t25.5 4.5q16 0 31.5 -5t27.5 -15t19.5 -24.5
t7.5 -33.5q0 -31 -16 -43.5t-37.5 -17.5t-43 -7.5t-31.5 -12.5q-15 -16 -18 -31.5t3.5 -27.5t20.5 -19.5t33 -7.5q23 0 38.5 9.5t26.5 21.5q13 15 20 31q0 2 2.5 5t7.5 3q4 0 6 -3t2 -5q2 -9 6.5 -16.5t9.5 -14.5q9 -12 24 -21.5t38 -9.5q8 0 19.5 1.5t21.5 6t17 12.5t7 20z
" />
    <glyph glyph-name="HIN_HALF_BHA" unicode="&#xc13;" horiz-adv-x="411" 
d="M336 89q0 11 -4.5 15.5t-9.5 6.5q-8 2 -14 1q-7 0 -12 5.5t-5.5 11.5t4 11.5t15.5 5.5q17 0 28.5 -11t16.5 -27t3.5 -35t-11.5 -35t-28.5 -27t-46.5 -11q-26 0 -42.5 10t-26.5 23q-11 16 -18 34q-7 -17 -20 -34q-11 -13 -28.5 -23t-43.5 -10q-16 0 -32.5 6t-30 17t-22 26
t-8.5 34q0 16 5.5 28t12.5 21q7 10 18 18q10 10 30 14.5t40 9.5t34.5 14t14.5 30q0 25 -18.5 37t-33.5 12q-20 0 -33.5 -14t-18.5 -32q0 -11 -7 -17.5t-15.5 -7.5t-15.5 5t-7 21q0 14 6.5 25.5t16.5 20.5t22 15t23 9q1 18 7 39.5t17 40.5t27 32t39 13q7 0 14 -4t11 -10.5
t3.5 -14t-7.5 -14.5q-5 -5 -9.5 -5.5t-10 -1t-13 -3.5t-17.5 -13q-15 -14 -22 -28.5t-10 -28.5q29 -3 52.5 -23t23.5 -55q0 -31 -16 -43.5t-37.5 -17.5t-43 -7.5t-31.5 -12.5q-15 -16 -18 -31.5t3.5 -27.5t20.5 -19.5t33 -7.5q23 0 38.5 9.5t26.5 21.5q13 15 20 31
q0 2 2.5 5t7.5 3q4 0 6 -3t2 -5q2 -9 6.5 -16.5t9.5 -14.5q9 -12 24 -21.5t38 -9.5q8 0 19.5 1.5t21.5 6t17 12.5t7 20z" />
    <glyph glyph-name="HIN_HALF_MA" unicode="&#xc14;" horiz-adv-x="492" 
d="M440 328q0 -16 -7 -31t-18.5 -26t-26.5 -18t-31 -7t-30 7t-25 18.5t-17.5 26.5t-6.5 30q0 12 3.5 22.5t14.5 21.5h-97q11 -8 16 -20.5t5 -26.5q0 -23 -16 -39.5t-39 -18.5q9 -10 14.5 -22.5t5.5 -28.5q0 -31 -16 -43.5t-37.5 -17.5t-43 -7.5t-31.5 -12.5
q-16 -16 -19 -31.5t4 -27.5t21.5 -19.5t32.5 -7.5q23 0 38.5 9.5t26.5 21.5q13 15 20 31q0 2 2.5 5t6.5 3q5 0 7 -3t2 -5q2 -9 6.5 -16.5t9.5 -14.5q9 -12 23.5 -21.5t37.5 -9.5q9 0 20 1.5t21.5 6t17.5 12.5t7 20q0 11 -4.5 15.5t-9.5 6.5q-8 2 -14 1q-8 0 -13 5.5
t-5.5 11.5t4 11.5t15.5 5.5q17 0 29 -11t17 -27t3.5 -35t-11.5 -35t-28.5 -27t-46.5 -11q-26 0 -43 10t-27 23q-11 16 -18 34q-7 -17 -20 -34q-11 -13 -28 -23t-43 -10q-16 0 -32.5 6t-30 17t-22 26t-8.5 34q0 16 5.5 28t12.5 21q7 10 18 18q10 10 30 14.5t39.5 9.5
t34.5 14.5t15 29.5q0 13 -5.5 22t-13.5 15t-17.5 9t-16.5 3q-16 0 -25.5 -7.5t-15.5 -15.5q-7 -9 -10 -23q0 -11 -7 -17.5t-16 -7.5t-16 5t-7 21q0 14 6 25t15 20h-9q-5 0 -10.5 3.5t-5.5 8.5t5.5 9t10.5 4h127q17 0 28.5 11.5t11.5 28.5t-11.5 28.5t-28.5 11.5h-131
q-6 2 -10 4q-9 4 -9 17q0 12 9 17q6 4 10 5h338q38 0 60.5 -26.5t22.5 -60.5zM414 335q0 23 -16.5 37t-37.5 14q-23 0 -39.5 -14.5t-16.5 -35.5q0 -22 17.5 -34.5t39.5 -12.5q20 0 36.5 11.5t16.5 34.5z" />
    <glyph glyph-name="HIN_HALF_YA" unicode="&#xc15;" horiz-adv-x="293" 
d="M306 408q-26 -20 -49.5 -37t-43.5 -33q-18 -13 -34 -25t-30 -22q18 -4 38 -12.5t34 -21.5q12 -13 11.5 -23.5t-7 -16.5t-16 -6.5t-15.5 5.5q-1 1 -6.5 9t-14.5 17.5t-22 17t-29 7.5q-42 0 -64 -17.5t-22 -38.5t24 -30t62 -9q125 0 125 -86q0 -16 -7.5 -31.5t-23.5 -27.5
t-39.5 -19.5t-54.5 -7.5q-21 0 -42.5 6t-39 17.5t-29 28t-11.5 37.5q0 12 6 18t13.5 6.5t14 -3.5t6.5 -10q0 -16 8 -26t20.5 -15.5t27 -7.5t26.5 -2q45 0 67 15t22 33q0 10 -3 19t-13 16t-27.5 10.5t-45.5 3.5q-63 0 -89 16.5t-26 48.5q0 24 18 44.5t49 30.5q-15 8 -28.5 16
t-16.5 12q-11 11 -10 22t8.5 18t19.5 7t23 -11q4 -4 9.5 -12t11 -17t11 -17t9.5 -11q2 0 4 0.5t4 0.5q9 6 31.5 27.5t48.5 46.5l78 76q5 5 13 3t14 -8t7.5 -15t-5.5 -16z" />
    <glyph glyph-name="HIN_HALF_MRATHI_YA" unicode="&#xc16;" horiz-adv-x="420" 
d="M368 125q0 -26 -6 -48.5t-18 -39.5t-31 -27t-45 -10q-22 0 -38 9.5t-27 20.5q-13 13 -22 31q-10 -17 -24 -31q-12 -11 -30 -20.5t-42 -9.5q-41 0 -62.5 23.5t-22.5 52t20 52t65 23.5q35 0 54.5 -10.5t39.5 -30.5q7 6 13.5 19t6.5 32q0 26 -8 43.5t-17 28.5q-10 13 -25 21
q2 -2 -0.5 -14.5t-10 -27t-21 -26t-32.5 -11.5q-35 0 -50 18.5t-11.5 41t23.5 41t56 18.5q26 0 48.5 -11.5t38.5 -30t25 -42.5t9 -49q0 -33 -10.5 -52t-13.5 -22l8 -10t9 -9q8 -8 21 -13.5t30 -5.5q21 0 35 8.5t23 21.5t12.5 29.5t3.5 31.5q0 16 -4.5 35t-15 35.5t-28 28
t-44.5 11.5q-16 0 -23 7t-7 15t6 15t17 7q33 0 57 -16.5t39 -41.5t22 -55t7 -56zM207 -17q2 -7 -2 -16.5t-24 -9.5t-24.5 9t-1.5 18q1 3 5 11.5t9 17.5q5 12 12 23q7 -11 12 -23q5 -9 8.5 -18t5.5 -12zM129 261q-5 5 -14 5.5t-12 0.5q-20 0 -31.5 -9.5t-14.5 -21.5t4 -21.5
t24 -9.5q20 0 32 19t12 37zM164 89q-11 10 -21 18q-11 7 -25 12.5t-33 5.5q-28 0 -41 -12t-12 -26t14.5 -26t38.5 -12q20 0 35 6t25 14q12 10 19 20z" />
    <glyph glyph-name="HIN_HALF_RA" unicode="&#xc17;" horiz-adv-x="358" 
d="M347 408q-26 -20 -49.5 -37t-43.5 -33l-68 -49q31 -10 53 -36.5t36 -59.5t21 -66.5t7 -58.5q0 -9 -1 -21t-4 -22.5t-9.5 -17.5t-17.5 -7q-8 0 -17 6.5t-9 16.5q0 9 6 27t6 54q0 27 -7 55.5t-20 52.5t-32 39.5t-44 15.5t-45 -15.5t-34 -39.5t-21.5 -52.5t-7.5 -55.5
q0 -36 6 -54t6 -27q0 -10 -8.5 -16.5t-17.5 -6.5q-11 0 -17.5 7t-9.5 17.5t-4 22.5t-1 21q0 24 7 56.5t21 64.5t36 58.5t51 38.5q-16 8 -29.5 16t-16.5 12q-11 11 -10 22t8.5 17.5t19.5 7t24 -10.5q3 -3 8 -11t11 -17t11.5 -17t9.5 -11h3q1 0 2 -0.5t3 -0.5q9 6 31.5 28
t49.5 47l78 76q5 5 13 3t14 -8t7.5 -15t-5.5 -16z" />
    <glyph glyph-name="HIN_HALF_LA" unicode="&#xc18;" horiz-adv-x="610" 
d="M550 128q0 -26 -6.5 -49.5t-19.5 -41t-33 -27.5t-46 -10q-38 0 -59 18.5t-32 41.5q-2 4 -3.5 7.5t-3.5 7.5q-9 -32 -33 -53.5t-64 -21.5q-23 0 -38 10t-25 23q-11 13 -18 33q-9 -25 -31 -45.5t-50 -20.5q-37 0 -62.5 25.5t-25.5 62.5q0 36 25.5 61.5t62.5 25.5
q32 0 54 -17.5t32 -42.5q3 -8 8.5 -19t14.5 -21.5t22 -18t31 -7.5q27 0 45 14.5t26 36t6.5 47t-12.5 47t-32 36t-51 14.5q-16 0 -23 8t-7 17t6 17t17 8q32 0 57 -17t41.5 -43.5t24 -59t5.5 -63.5q4 -9 11.5 -20t18.5 -20t26 -15.5t36 -6.5q26 0 44 14.5t26.5 36.5t7.5 47.5
t-12 47.5t-32 36.5t-52 14.5q-17 0 -25 7.5t-8 16.5t7 16.5t19 7.5q33 0 57 -16t40.5 -41t24.5 -54t8 -55zM185 364q-18 -13 -35.5 -25.5t-31 -22.5t-22.5 -16t-10 -6q-2 0 -14.5 6t-27.5 14t-28 15.5t-16 10.5q-11 11 -10 22.5t8.5 18t19.5 7t23 -11.5q4 -4 10.5 -13.5
t13 -19.5t12.5 -17.5t9 -7.5q2 0 10 6.5t19.5 17t26 24.5t29.5 28l36 36l41 41q6 5 14 3t14 -8.5t7.5 -15t-5.5 -15.5zM144 100q0 21 -16.5 36t-39.5 15q-24 0 -40 -15t-16 -36t16 -36t40 -15q23 0 39.5 15t16.5 36zM188 -14q1 -4 2 -10t-1 -11.5t-7 -9.5t-16 -4
q-20 0 -22.5 12.5t0.5 21.5q1 3 4.5 10.5t7.5 15.5l10 19l10 -19q4 -8 7 -15t5 -10z" />
    <glyph glyph-name="HIN_HALF_MARATHI_LA" unicode="&#xc19;" horiz-adv-x="411" 
d="M343 197q0 -5 -2 -6.5t-4 -3.5q-4 -2 -5 -2h-160q-9 -17 -25.5 -23.5t-34.5 -9t-35 -5.5t-26 -12q-16 -16 -19 -31.5t4 -27.5t21.5 -19.5t32.5 -7.5q23 0 38.5 9.5t26.5 21.5q13 15 20 31q0 2 2.5 5t7.5 3q4 0 6 -3t2 -5q2 -9 6.5 -16.5t9.5 -14.5q9 -12 24 -21.5
t38 -9.5q8 0 19.5 1.5t21.5 6t17 12.5t7 20q0 11 -4.5 15.5t-9.5 6.5q-8 2 -14 1q-7 0 -12 5.5t-5.5 11.5t4 11.5t15.5 5.5q17 0 28.5 -11t16.5 -27t3.5 -35t-11.5 -35t-28.5 -27t-46.5 -11q-26 0 -42.5 10t-26.5 23q-11 16 -18 34q-7 -17 -20 -34q-11 -13 -28.5 -23
t-43.5 -10q-16 0 -32.5 6t-30 17t-22 26t-8.5 34q0 16 5.5 28t12.5 21q7 10 18 18q10 10 30 14.5t40 9.5t34.5 14t14.5 30q0 25 -18.5 37t-33.5 12q-16 0 -26 -7.5t-16 -15.5q-7 -9 -10 -23q0 -11 -7 -17.5t-15.5 -7.5t-15.5 5t-7 21q0 18 9.5 31.5t23.5 22.5t28.5 13.5
t25.5 4.5q37 0 63 -23t23 -61h70l-16 58q2 8 4 11q2 4 7 7.5t13 3.5q14 0 19 -12q3 -5 3 -11l-17 -57h70q1 0 5 -2q6 -5 6 -11z" />
    <glyph glyph-name="HIN_HALF_LLA" unicode="&#xc1a;" horiz-adv-x="404" 
d="M277 339q-15 -12 -29.5 -24t-26.5 -21q30 -2 53.5 -17.5t40 -40.5t25.5 -56t9 -65q0 -21 -6 -41.5t-18 -37t-28.5 -26.5t-37.5 -10q-19 0 -32 9t-21 20q-11 13 -15 30q-6 -18 -16 -30q-9 -11 -23 -20t-34 -9q-35 0 -58 23.5t-23 54.5q0 23 7.5 38t17.5 26q11 11 26 20
h-37t-22.5 0.5t-13 2.5t-8.5 6q-6 6 -7 14t2 15t9.5 11.5t15.5 4.5q25 -8 48 -12q18 -5 34.5 -9.5t18.5 -6.5q9 -10 3 -19q-3 -4 -7 -7q-8 -2 -15 -5.5t-12 -7.5q-10 -8 -18 -19.5t-8 -29.5q0 -21 13.5 -36t39.5 -15q23 0 34 10t16 22q4 13 6 33q0 2 2 4q4 4 9 4q4 0 8 -4
l3 -4q1 -20 6 -33q5 -12 15 -22t30 -10q16 0 29 8t21.5 20t13 26t4.5 26q0 24 -7 48.5t-20.5 45t-34 33t-46.5 12.5h-17q-5 0 -7 1h-1q-2 0 -14.5 6t-27.5 13.5t-28 15.5t-16 11q-11 11 -10 22.5t8.5 18t19.5 7t24 -11.5q3 -4 9.5 -13.5t13 -19.5t12.5 -17.5t9 -7.5
q5 0 27 23.5t48 52.5l67 76q5 5 13 3t14 -8.5t8 -15t-5 -15.5z" />
    <glyph glyph-name="HIN_HALF_VA" unicode="&#xc1b;" horiz-adv-x="404" 
d="M277 339q-15 -12 -29.5 -24t-26.5 -21q30 -2 53.5 -17.5t40 -40.5t25.5 -56t9 -65q0 -21 -6 -41.5t-18 -37t-28.5 -26.5t-37.5 -10q-19 0 -32 9t-21 20q-11 13 -15 30q-6 -18 -16 -30q-9 -11 -23 -20t-34 -9q-35 0 -58 23.5t-23 54.5q0 23 7.5 38t17.5 26q11 11 26 20
h-37t-22.5 0.5t-13 2.5t-8.5 6q-6 6 -7 14t2 15t9.5 11.5t15.5 4.5q25 -8 48 -12q18 -5 34.5 -9.5t18.5 -6.5q9 -10 3 -19q-3 -4 -7 -7q-8 -2 -15 -5.5t-12 -7.5q-10 -8 -18 -19.5t-8 -29.5q0 -21 13.5 -36t39.5 -15q23 0 34 10t16 22q4 13 6 33q0 2 2 4q4 4 9 4q4 0 8 -4
l3 -4q1 -20 6 -33q5 -12 15 -22t30 -10q16 0 29 8t21.5 20t13 26t4.5 26q0 24 -7 48.5t-20.5 45t-34 33t-46.5 12.5h-17q-5 0 -7 1h-1q-2 0 -14.5 6t-27.5 13.5t-28 15.5t-16 11q-11 11 -10 22.5t8.5 18t19.5 7t24 -11.5q3 -4 9.5 -13.5t13 -19.5t12.5 -17.5t9 -7.5
q5 0 27 23.5t48 52.5l67 76q5 5 13 3t14 -8.5t8 -15t-5 -15.5zM213 -14q1 -4 2 -10t-1 -11.5t-7 -9.5t-16 -4q-20 0 -22.5 12.5t0.5 21.5q1 3 4.5 10.5t7.5 15.5l10 19l10 -19q4 -8 7 -15t5 -10z" />
    <glyph glyph-name="HIN_HALF_SHA" unicode="&#xc1c;" horiz-adv-x="395" 
d="M308 118q19 0 29 -18.5t5.5 -40.5t-26 -40.5t-63.5 -18.5q-26 0 -43 8.5t-27 19.5t-18 29q-5 -19 -14 -29q-8 -11 -24 -19.5t-42 -8.5q-16 0 -31 4.5t-27 13.5t-19.5 23t-7.5 33t5.5 32t12.5 21q7 10 18 15q8 8 27.5 11.5t40 10t36 18.5t15.5 36q0 13 -6 22t-14 15t-18 9
t-17 3q-9 0 -19.5 -5t-17.5 -12.5t-9 -16.5t7 -18q7 -7 5.5 -16t-8 -15t-16.5 -7t-20 9q-11 12 -12.5 30t8.5 35.5t31 30t55 12.5q29 0 51.5 -18.5t22.5 -44.5q0 -5 6 -13t16 -15t22.5 -12t24.5 -5q29 0 44.5 12.5t16.5 28t-12 28t-41 12.5q-5 0 -8 4t-3 9.5t4.5 9.5t15.5 4
q36 0 54 -23.5t17 -52t-21 -52t-59 -23.5q-18 0 -31.5 6t-23.5 14t-16 16t-9 13q-6 -21 -21.5 -31.5t-34.5 -17.5t-37 -12.5t-29 -16.5q-8 -8 -10.5 -19.5t1.5 -21.5t13.5 -17t24.5 -7q23 0 37 8t22 18q9 9 14 26q0 2 3 5.5t7 3.5q5 0 7 -3.5t2 -5.5q4 -14 16 -26
q9 -10 23.5 -18t37.5 -8q25 0 38.5 6t18 12.5t3 12.5t-5.5 6q-8 0 -11.5 5t-3 11t5 11t12.5 5z" />
    <glyph glyph-name="HIN_HALF_MARATHI_SHA" unicode="&#xc1d;" horiz-adv-x="725" 
d="M331 408q-26 -20 -49.5 -37t-43.5 -33q-18 -13 -34 -25t-30 -22q25 -5 47 -17.5t38.5 -32t25.5 -43.5t9 -51q0 -23 -8 -47q8 -17 26.5 -34t59.5 -17q27 0 44.5 14.5t26 36.5t8 47.5t-10.5 47.5t-29.5 36.5t-47.5 14.5q-17 0 -24.5 7.5t-7.5 16.5t7 16.5t19 7.5
q29 0 51.5 -16t37.5 -41t22.5 -54t7.5 -55q1 -2 3.5 -14.5t10.5 -27t24.5 -26t44.5 -11.5q26 0 44 14.5t26.5 36.5t7.5 47.5t-12 47.5t-32 36.5t-52 14.5q-17 0 -25 7.5t-8 16.5t7 16.5t19 7.5q33 0 57 -16t40 -41t24 -54t8 -55t-6.5 -49.5t-19.5 -41t-32.5 -27.5t-45.5 -10
q-19 0 -33.5 6.5t-25.5 16.5t-19 22.5t-14 25.5q-11 -32 -34.5 -51.5t-60.5 -19.5q-38 0 -59 18t-32 41q-3 4 -7 14q-19 -33 -52 -53t-75 -20q-30 0 -57 11.5t-47 31.5t-31.5 47t-11.5 57q0 48 27.5 86t71.5 53q-15 8 -29 16t-17 12q-11 11 -10 22t8.5 17.5t19.5 7t24 -10.5
q3 -3 8.5 -11.5t11 -17.5t11 -17t9.5 -11q2 0 4 0.5t4 0.5q9 6 31.5 27.5t49.5 46.5l78 76q5 5 13 3t14 -8t7.5 -15t-5.5 -16zM264 157q0 22 -9.5 42t-25.5 35t-37 24t-43 9q-23 0 -44 -9t-37 -24t-25.5 -35t-9.5 -42q0 -24 10 -43.5t26.5 -34t37.5 -22.5t42 -8q22 0 43 8.5
t37 23t25.5 34t9.5 42.5zM490 -14q1 -4 2 -10t-1 -11.5t-7 -9.5t-16 -4q-20 0 -22.5 12.5t0.5 21.5q1 3 4.5 10.5t7.5 15.5l10 19l10 -19q4 -8 7 -15t5 -10z" />
    <glyph glyph-name="HIN_HALF_SHHA" unicode="&#xc1e;" horiz-adv-x="518" 
d="M467 196q0 -7 -6 -11q-4 -2 -6 -2h-157q0 -27 -11 -54t-28 -50q7 -8 13 -17t11 -17q9 -14 16.5 -30t7.5 -29q0 -6 -4 -12t-10.5 -9.5t-14 -3t-13.5 6.5t-7 17.5t-1 24t-2 25.5t-12 23q-26 -26 -58.5 -42t-75.5 -16q-51 0 -79 23.5t-30 52t24.5 52t84.5 23.5q35 0 68 -11
t65 -40q17 16 23.5 38.5t6.5 39.5q0 27 -16 50t-47 23q-16 0 -27 -7t-18 -15q-4 -5 -7.5 -10.5t-5.5 -10.5q0 -2 -2 -5t-6 -3q-5 0 -7.5 3t-2.5 5q-3 14 -10 23q-6 9 -16 16.5t-26 7.5q-12 0 -20.5 -7t-12.5 -16t-3.5 -18.5t5.5 -14.5q3 -4 0.5 -8t-6.5 -8q-3 -3 -8.5 -2
t-9.5 4q-8 8 -12 26t1 36.5t20 32.5t44 14q16 0 28 -7.5t20 -16.5q8 -10 15 -23l8 12t9 11q8 9 20.5 16.5t28.5 7.5q40 0 61 -23t27 -63h76l-15 59q0 6 3 11q2 4 7 7.5t13 3.5q15 0 20 -12q3 -5 3 -12l-17 -57h69q2 0 6 -2q6 -5 6 -10zM221 82q-26 26 -56 34.5t-56 8.5
q-39 0 -58.5 -12t-19.5 -26t19.5 -26t58.5 -12q13 0 28 1t30 5t29 10t25 17z" />
    <glyph glyph-name="HIN_HALF_SA" unicode="&#xc1f;" horiz-adv-x="449" 
d="M285 0q-21 0 -36.5 10.5t-25.5 23.5q-13 16 -20 35q-5 -10 -10.5 -18.5t-12.5 -16.5q-11 -13 -27.5 -23.5t-37.5 -10.5q-26 0 -47 12t-36 32.5t-23.5 48t-8.5 58.5q0 49 14.5 78t32.5 43q21 18 47 22l-15 60q2 9 4 12q5 12 22 12t22 -12q2 -3 4 -12l-16 -58
q26 -3 43.5 -22.5t17.5 -45.5q0 -28 -20 -47.5t-48 -19.5q-20 0 -32.5 8t-20 18.5t-10.5 21t-3 15.5q-15 -15 -17.5 -44.5t7.5 -58.5t32 -50.5t57 -21.5q20 0 34 10.5t22 23.5q10 15 15 35q0 2 2 4q5 5 9 5q3 0 4.5 -1.5l3.5 -3.5l3 -4q5 -22 14 -35q8 -13 22 -23.5
t35 -10.5q27 0 45 14.5t26 36t6.5 47t-13 47t-33 36t-52.5 14.5q-16 0 -23 8t-7 17t6 17t17 8q37 0 65 -22t45 -54.5t21 -70.5t-5 -70.5t-33.5 -54.5t-64.5 -22zM107 188q21 0 31 12.5t10 27.5t-10 27.5t-31 12.5q-17 0 -31.5 -9t-14.5 -13q0 -18 4 -29t13.5 -20t28.5 -9z
" />
    <glyph glyph-name="HIN_HALF_HA" unicode="&#xc20;" horiz-adv-x="344" 
d="M331 408q-26 -20 -49.5 -37t-43.5 -33q-18 -13 -34 -25t-30 -22q25 -5 47 -17.5t38.5 -32t25.5 -43.5t9 -51q0 -30 -11.5 -57t-31.5 -47t-46.5 -31.5t-57.5 -11.5q-30 0 -57 11.5t-47 31.5t-31.5 47t-11.5 57q0 48 27.5 86t71.5 53q-15 8 -29 16t-17 12q-11 11 -10 22
t8.5 17.5t19.5 7t24 -10.5q3 -3 8.5 -11.5t11 -17.5t11 -17t9.5 -11q2 0 4 0.5t4 0.5q9 6 31.5 27.5t49.5 46.5l78 76q5 5 13 3t14 -8t7.5 -15t-5.5 -16zM264 157q0 22 -9.5 42t-25.5 35t-37 24t-43 9q-23 0 -44 -9t-37 -24t-25.5 -35t-9.5 -42q0 -24 10 -43.5t26.5 -34
t37.5 -22.5t42 -8q22 0 43 8.5t37 23t25.5 34t9.5 42.5zM148 136q-13 0 -19.5 7.5t-6.5 16t6 16t19 7.5q12 0 18.5 -7.5t6.5 -16t-6 -16t-18 -7.5z" />
    <glyph glyph-name="HIN_KA_HALANT" unicode="&#xc21;" horiz-adv-x="390" 
d="M353 408q-26 -20 -49.5 -37t-43.5 -33l-63 -47q22 -2 45 -9.5t37 -21.5q6 -6 6 -12.5t-3.5 -12t-9 -8.5t-10.5 -3q-3 0 -11 7t-19.5 15t-26.5 15t-34 7q-29 0 -54.5 -12t-44.5 -31.5t-30 -44.5t-11 -51q0 -31 18.5 -55.5t50.5 -24.5q25 0 38.5 12t19.5 27q7 15 7 39
q0 2 2 4q4 4 9 4t9 -4q2 -2 2 -4q1 -11 3.5 -21t6.5 -18q7 -15 20.5 -27t39.5 -12q8 0 18.5 2.5t20 8t16 15t6.5 23.5q0 16 -7 26.5t-25 10.5q-11 0 -15.5 -4t-7.5 -9.5t-6 -9.5t-10 -4q-18 0 -18 17q0 15 16 25.5t30 10.5q40 0 57.5 -21t17.5 -52q0 -34 -23.5 -61
t-65.5 -27q-20 0 -36 10t-27 23q-13 14 -22 34q-11 -20 -22 -34q-11 -13 -26 -23t-34 -10q-21 0 -38 9t-29.5 24t-19.5 34.5t-7 40.5q0 28 9.5 56t26 52t39 42t49.5 27q-16 8 -31 16.5t-18 12.5q-11 11 -10 22.5t9 18.5t20 7t23 -12q4 -4 9.5 -13t12 -18t12 -16.5t9.5 -9.5
h4q8 5 31.5 27t50.5 48q17 17 36.5 36t41.5 41q5 5 13 2.5t14 -8.5t7.5 -15t-5.5 -16z" />
    <glyph glyph-name="HIN_KHA_HALANT" unicode="&#xc22;" horiz-adv-x="390" 
d="M353 408q-26 -20 -49.5 -37t-43.5 -33l-63 -47q22 -2 45 -9.5t37 -21.5q6 -6 6 -12.5t-3.5 -12t-9 -8.5t-10.5 -3q-3 0 -11 7t-19.5 15t-26.5 15t-34 7q-29 0 -54.5 -12t-44.5 -31.5t-30 -44.5t-11 -51q0 -31 18.5 -55.5t50.5 -24.5q25 0 38.5 12t19.5 27q7 15 7 39
q0 2 2 4q4 4 9 4t9 -4q2 -2 2 -4q1 -11 3.5 -21t6.5 -18q7 -15 20.5 -27t39.5 -12q8 0 18.5 2.5t20 8t16 15t6.5 23.5q0 16 -7 26.5t-25 10.5q-11 0 -15.5 -4t-7.5 -9.5t-6 -9.5t-10 -4q-18 0 -18 17q0 15 16 25.5t30 10.5q40 0 57.5 -21t17.5 -52q0 -34 -23.5 -61
t-65.5 -27q-20 0 -36 10t-27 23q-13 14 -22 34q-11 -20 -22 -34q-11 -13 -26 -23t-34 -10q-21 0 -38 9t-29.5 24t-19.5 34.5t-7 40.5q0 28 9.5 56t26 52t39 42t49.5 27q-16 8 -31 16.5t-18 12.5q-11 11 -10 22.5t9 18.5t20 7t23 -12q4 -4 9.5 -13t12 -18t12 -16.5t9.5 -9.5
h4q8 5 31.5 27t50.5 48q17 17 36.5 36t41.5 41q5 5 13 2.5t14 -8.5t7.5 -15t-5.5 -16zM198 -14q1 -4 2 -10t-1 -11.5t-7 -9.5t-16 -4q-20 0 -22.5 12.5t0.5 21.5q1 3 4.5 10.5t7.5 15.5l10 19l10 -19q4 -8 7 -15t5 -10z" />
    <glyph glyph-name="HIN_GA_HALANT" unicode="&#xc23;" horiz-adv-x="449" 
d="M372 243q14 -22 21.5 -51t6.5 -58.5t-11.5 -57t-32.5 -46.5q-20 -18 -47 -25t-51.5 -1.5t-41.5 24.5t-17 53q0 33 21 56t51 23q29 0 43.5 -15t19.5 -32q6 -20 3 -46q7 0 16 14t14 35t5.5 45t-8.5 45t-29.5 35t-56.5 14q-21 0 -36 -11t-24 -24q-12 -17 -17 -34l-3 -4
q-4 -4 -8 -4q-5 0 -9 4q-2 2 -2 4q-4 10 -9 18l-10 16q-10 13 -24.5 24t-35.5 11q-8 0 -18.5 -3t-20.5 -9.5t-16.5 -16t-6.5 -21.5q0 -9 3 -17.5t11 -15t22.5 -11t37.5 -4.5l4 -3l3.5 -3.5t1.5 -4.5q0 -4 -1.5 -5.5l-3.5 -3.5t-4 -2q-10 0 -23 -1.5t-25 -6t-20.5 -13.5
t-8.5 -24q0 -11 5.5 -19t13.5 -13t17 -7t17 -2q22 0 30 6.5t11 15t5 15t12 6.5q11 0 16 -9.5t5 -17.5q0 -17 -8 -29t-20 -20t-26.5 -12t-27.5 -4q-15 0 -30 5.5t-27 16t-20 24.5t-8 31q0 19 7 32.5t16 21.5q10 10 24 16q-12 6 -21 15q-8 8 -14 20t-6 30q0 19 8.5 34t22 25.5
t31 16.5t36.5 6q26 0 42.5 -9.5t26.5 -20.5q5 -7 9.5 -14t7.5 -15q7 15 21 29q11 11 28.5 20.5t43.5 9.5q29 0 51.5 -14t37.5 -37zM315 90q0 23 -14 34t-30.5 11t-30.5 -11t-14 -31q0 -17 14.5 -30.5t40.5 -13.5q27 0 30.5 8.5t3.5 32.5z" />
    <glyph glyph-name="HIN_GHA_HALANT" unicode="&#xc24;" horiz-adv-x="410" 
d="M287 339l-59 -48q17 -3 38.5 -14t47.5 -37q4 -4 11 -13t14.5 -22t13 -30t5.5 -37q0 -34 -16 -60t-41 -43.5t-55.5 -26.5t-60.5 -9q-32 0 -65 8t-59.5 25.5t-43.5 44t-17 63.5q0 18 6 36t17.5 32.5t27 23t35.5 8.5q25 0 43 -16.5t18 -42.5q0 -25 -20 -42.5t-44 -17.5
q-13 0 -25 5.5t-23 13.5q0 -14 7 -29.5t24.5 -28t45.5 -21t70 -8.5q38 0 65.5 8t45 20.5t25.5 28.5t8 33q-10 -10 -24 -17t-28 -7q-24 0 -43.5 19t-19.5 44t18.5 41t44.5 16q-10 12 -21.5 18t-21.5 8.5t-18 2.5h-12q-5 0 -10 1.5t-7 4.5q-9 4 -20 10l-22 12t-19 11t-11 8
q-11 11 -10 22.5t8.5 18t19.5 7t24 -11.5q3 -4 8.5 -12.5t11.5 -17.5t12 -17t10 -10h1h3q8 5 28.5 27t44.5 48l67 76q5 5 13 3t14 -8.5t8 -15t-5 -15.5zM117 182q0 13 -9 22.5t-23 9.5q-9 0 -17 -3.5t-14 -9t-10 -11t-4 -8.5t4 -8.5t10.5 -10.5t14 -9t14.5 -4q13 0 23.5 8.5
t10.5 23.5zM321 182q0 3 -4 8.5t-10 11t-14 9t-17 3.5q-14 0 -23 -9.5t-9 -22.5q0 -15 11 -23.5t23 -8.5q7 0 14.5 4t14 9t10.5 10.5t4 8.5z" />
    <glyph glyph-name="HIN_NGA_HALANT" unicode="&#xc25;" horiz-adv-x="395" 
d="M362 408q-26 -20 -49.5 -37t-43.5 -33q-18 -13 -34 -25t-30 -22q30 -5 57.5 -21.5t47.5 -40t32 -52.5t12 -60q0 -18 -5 -38.5t-16.5 -38t-28.5 -29t-41 -11.5q-21 0 -36.5 11.5t-25.5 25.5q-13 18 -20 37q-4 -11 -9 -20t-10 -17q-10 -14 -26 -25.5t-39 -11.5
q-24 0 -42 11.5t-30.5 28.5t-18.5 38t-6 39q0 28 10 54.5t28 49t41.5 39.5t50.5 26q-16 8 -29.5 16t-16.5 12q-11 11 -10 22.5t8.5 18t19.5 7t24 -11.5q3 -4 8 -12t11 -17t12 -17t10 -11q2 0 3.5 0.5t3.5 0.5q10 6 32.5 27.5t48.5 46.5l77 76q5 5 13 3t14 -8.5t8 -15
t-5 -15.5zM318 131q0 26 -12 50.5t-32 44t-45 31t-51 11.5t-51 -11.5t-44.5 -31t-31.5 -44t-12 -50.5q0 -32 16 -57t48 -25q16 0 28 12t21 27q10 16 18 39q0 2 2 4q4 4 9 4q4 0 8 -4l3 -4q4 -11 8 -21t9 -18q8 -15 20 -27t28 -12q32 0 46.5 25t14.5 57zM204 -14q1 -4 2 -10
t-1 -11.5t-7 -9.5t-16 -4q-20 0 -22.5 12.5t0.5 21.5q1 3 4.5 10.5t7.5 15.5l10 19l10 -19q4 -8 7 -15t5 -10zM182 172q-12 0 -18.5 7.5t-6.5 16.5t6.5 16.5t18.5 7.5t18.5 -7.5t6.5 -16.5t-6.5 -16.5t-18.5 -7.5z" />
    <glyph glyph-name="HIN_CHA_HALANT" unicode="&#xc26;" horiz-adv-x="395" 
d="M362 408q-26 -20 -49.5 -37t-43.5 -33q-18 -13 -34 -25t-30 -22q30 -5 57.5 -21.5t47.5 -40t32 -52.5t12 -60q0 -18 -5 -38.5t-16.5 -38t-28.5 -29t-41 -11.5q-21 0 -36.5 11.5t-25.5 25.5q-13 18 -20 37q-4 -11 -9 -20t-10 -17q-10 -14 -26 -25.5t-39 -11.5
q-24 0 -42 11.5t-30.5 28.5t-18.5 38t-6 39q0 28 10 54.5t28 49t41.5 39.5t50.5 26q-16 8 -29.5 16t-16.5 12q-11 11 -10 22.5t8.5 18t19.5 7t24 -11.5q3 -4 8 -12t11 -17t12 -17t10 -11q2 0 3.5 0.5t3.5 0.5q10 6 32.5 27.5t48.5 46.5l77 76q5 5 13 3t14 -8.5t8 -15
t-5 -15.5zM318 131q0 26 -12 50.5t-32 44t-45 31t-51 11.5t-51 -11.5t-44.5 -31t-31.5 -44t-12 -50.5q0 -32 16 -57t48 -25q16 0 28 12t21 27q10 16 18 39q0 2 2 4q4 4 9 4q4 0 8 -4l3 -4q4 -11 8 -21t9 -18q8 -15 20 -27t28 -12q32 0 46.5 25t14.5 57z" />
    <glyph glyph-name="HIN_CHHA_HALANT" unicode="&#xc27;" horiz-adv-x="395" 
d="M362 408q-26 -20 -49.5 -37t-43.5 -33q-18 -13 -34 -25t-30 -22q30 -5 57.5 -21.5t47.5 -40t32 -52.5t12 -60q0 -18 -5 -38.5t-16.5 -38t-28.5 -29t-41 -11.5q-21 0 -36.5 11.5t-25.5 25.5q-13 18 -20 37q-4 -11 -9 -20t-10 -17q-10 -14 -26 -25.5t-39 -11.5
q-24 0 -42 11.5t-30.5 28.5t-18.5 38t-6 39q0 28 10 54.5t28 49t41.5 39.5t50.5 26q-16 8 -29.5 16t-16.5 12q-11 11 -10 22.5t8.5 18t19.5 7t24 -11.5q3 -4 8 -12t11 -17t12 -17t10 -11q2 0 3.5 0.5t3.5 0.5q10 6 32.5 27.5t48.5 46.5l77 76q5 5 13 3t14 -8.5t8 -15
t-5 -15.5zM318 131q0 26 -12 50.5t-32 44t-45 31t-51 11.5t-51 -11.5t-44.5 -31t-31.5 -44t-12 -50.5q0 -32 16 -57t48 -25q16 0 28 12t21 27q10 16 18 39q0 2 2 4q4 4 9 4q4 0 8 -4l3 -4q4 -11 8 -21t9 -18q8 -15 20 -27t28 -12q32 0 46.5 25t14.5 57zM204 -14q1 -4 2 -10
t-1 -11.5t-7 -9.5t-16 -4q-20 0 -22.5 12.5t0.5 21.5q1 3 4.5 10.5t7.5 15.5l10 19l10 -19q4 -8 7 -15t5 -10z" />
    <glyph glyph-name="HIN_JA_HALANT" unicode="&#xc28;" horiz-adv-x="387" 
d="M254 368q-24 -18 -51 -38.5t-48 -35.5h24q42 0 74 -22t52 -54.5t27 -70.5t0 -70.5t-30 -54.5t-63 -22q-25 0 -42 11t-28.5 28t-20.5 36.5t-18.5 36.5t-22 28t-30.5 11q-19 0 -31.5 -15t-12.5 -32q0 -16 7 -27t15.5 -20t15.5 -17t7 -17q0 -11 -8 -17t-19 -6
q-13 0 -22.5 10.5t-16 24.5t-9.5 29.5t-3 25.5q0 33 20 59t55 26q22 0 36.5 -9.5t26 -23.5t21 -30t20 -30t25 -23.5t35.5 -9.5q29 0 45 16t20.5 40.5t-1.5 52.5t-22 52.5t-41 40.5t-58 16h-65q-3 0 -16.5 7t-28.5 15.5t-28 16t-15 9.5q-11 11 -10 23t9 19t20 7.5t24 -11.5
q4 -4 10 -14t12.5 -20.5t13 -18t11.5 -6.5q4 3 13.5 11t21.5 19t26.5 25t28.5 28l72 71q5 5 13 2.5t14 -9t7.5 -15t-5.5 -15.5z" />
    <glyph glyph-name="HIN_NYA_HALANT" unicode="&#xc2a;" horiz-adv-x="393" 
d="M250 0q-23 0 -38 10t-25 23q-11 13 -18 33q-9 -25 -31 -45.5t-50 -20.5q-37 0 -62.5 25.5t-25.5 62.5q0 36 25.5 61.5t62.5 25.5q32 0 54 -17.5t32 -42.5q3 -8 8.5 -19t14.5 -21.5t22 -18t31 -7.5q27 0 45 14.5t26 36t6.5 47t-12.5 47t-32 36t-51 14.5q-16 0 -23 8t-7 17
t6 17t17 8q36 0 63.5 -22t44 -54.5t20.5 -70.5t-5 -70.5t-33.5 -54.5t-64.5 -22zM185 364q-18 -13 -35.5 -25.5t-31 -22.5t-22.5 -16t-10 -6q-2 0 -14.5 6t-27.5 14t-28 15.5t-16 10.5q-11 11 -10 22.5t8.5 18t19.5 7t23 -11.5q4 -4 10.5 -13.5t13 -19.5t12.5 -17.5t9 -7.5
q2 0 10 6.5t19.5 17t26 24.5t29.5 28l36 36l41 41q6 5 14 3t14 -8.5t7.5 -15t-5.5 -15.5zM144 100q0 21 -16.5 36t-39.5 15q-24 0 -40 -15t-16 -36t16 -36t40 -15q23 0 39.5 15t16.5 36z" />
    <glyph glyph-name="HIN_TTA_HALANT" unicode="&#xc2b;" horiz-adv-x="393" 
d="M250 0q-23 0 -38 10t-25 23q-11 13 -18 33q-9 -25 -31 -45.5t-50 -20.5q-37 0 -62.5 25.5t-25.5 62.5q0 36 25.5 61.5t62.5 25.5q32 0 54 -17.5t32 -42.5q3 -8 8.5 -19t14.5 -21.5t22 -18t31 -7.5q27 0 45 14.5t26 36t6.5 47t-12.5 47t-32 36t-51 14.5q-16 0 -23 8t-7 17
t6 17t17 8q36 0 63.5 -22t44 -54.5t20.5 -70.5t-5 -70.5t-33.5 -54.5t-64.5 -22zM185 364q-18 -13 -35.5 -25.5t-31 -22.5t-22.5 -16t-10 -6q-2 0 -14.5 6t-27.5 14t-28 15.5t-16 10.5q-11 11 -10 22.5t8.5 18t19.5 7t23 -11.5q4 -4 10.5 -13.5t13 -19.5t12.5 -17.5t9 -7.5
q2 0 10 6.5t19.5 17t26 24.5t29.5 28l36 36l41 41q6 5 14 3t14 -8.5t7.5 -15t-5.5 -15.5zM144 100q0 21 -16.5 36t-39.5 15q-24 0 -40 -15t-16 -36t16 -36t40 -15q23 0 39.5 15t16.5 36zM190 -14q1 -4 2 -10t-1 -11.5t-7 -9.5t-16 -4q-20 0 -22.5 12.5t0.5 21.5
q1 3 4.5 10.5t7.5 15.5l10 19l10 -19q4 -8 7 -15t5 -10z" />
    <glyph glyph-name="HIN_TTHA_HALANT" unicode="&#xc2c;" horiz-adv-x="432" 
d="M268 0q-21 0 -37 10t-27 22q-11 13 -21 32q-5 -9 -10.5 -17t-11.5 -15q-11 -12 -26.5 -22t-36.5 -10q-34 0 -56 13t-32.5 32.5t-9.5 42t11.5 42t30.5 32.5t49 13q31 0 45 14.5t14 31.5t-12 31.5t-33 14.5t-36 -12t-15 -33q0 -12 -8.5 -18t-18 -5.5t-18 7.5t-8.5 19
q0 16 8.5 28.5t21.5 21.5t29 14t31 5q42 0 64.5 -22.5t24 -49t-20 -49t-68.5 -22.5q-29 0 -43.5 -16t-14 -35t16.5 -35t48 -16q21 0 35 10t23 22q10 12 16 33q0 2 2 4q4 4 9 4q4 0 8 -4l3 -4q4 -18 16 -33q8 -12 22.5 -22t35.5 -10q27 0 44.5 14.5t26 36t7.5 47t-12 47
t-32 36t-52 14.5q-16 0 -23 8t-7 17t6 17t17 8q37 0 64.5 -22t43.5 -54.5t19.5 -70.5t-6 -70.5t-33.5 -54.5t-63 -22z" />
    <glyph glyph-name="HIN_DDA_HALANT" unicode="&#xc2d;" horiz-adv-x="405" 
d="M406 409q-26 -20 -49.5 -37t-43.5 -33l-62 -46q35 -3 61 -25.5t41 -55t18 -70t-7 -69t-34 -52.5t-63 -21q-21 0 -36.5 10t-26.5 22q-11 13 -21 32q-5 -9 -10.5 -17t-11.5 -15q-11 -12 -26.5 -22t-36.5 -10q-34 0 -56 13t-32.5 32.5t-9.5 42t11.5 42t30.5 32.5t49 13
q31 0 45 14.5t14 31.5t-12 31.5t-33 14.5t-36 -12t-15 -33q0 -12 -8.5 -18t-18 -5.5t-18 7.5t-8.5 19q0 16 8.5 28.5t21.5 21.5t29 14t31 5q42 0 64.5 -22.5t24 -49t-20 -49t-68.5 -22.5q-29 0 -43.5 -16t-14 -35t16.5 -35t48 -16q21 0 35 10t23 22q10 12 16 33q0 2 2 4
q4 4 9 4q4 0 8 -4l3 -4q6 -21 16 -33q8 -12 22 -22t35 -10q31 0 49.5 16t25.5 40.5t3.5 52.5t-16 52.5t-33.5 40.5t-49 16q-18 0 -25 6q-5 -4 -7 -4t-14 6l-27 13.5t-28.5 15.5t-16.5 11q-11 11 -10 22t8.5 18t19.5 7t23 -11q4 -4 10.5 -13.5t13 -19.5t12.5 -17.5t9 -7.5
q2 0 9.5 6.5t19 17t26 24.5t29.5 28l78 76q6 5 14 3t14 -8t7 -15t-6 -16zM192 11q3 -6 7.5 -16.5t5.5 -20t-3.5 -16.5t-19.5 -7q-20 0 -22.5 12.5t0.5 21.5q1 3 4.5 10.5t7.5 15.5l10 19z" />
    <glyph glyph-name="HIN_DDHA_HALANT" unicode="&#xc2e;" horiz-adv-x="617" 
d="M557 128q0 -26 -6.5 -49.5t-19.5 -41t-33 -27.5t-46 -10q-38 0 -59 18.5t-32 41.5q-5 11 -8 20q-11 -34 -37.5 -57t-65.5 -23q-23 0 -38 10t-25 22q-11 13 -18 33q-8 -18 -20 -33q-10 -12 -25.5 -22t-35.5 -10q-36 0 -62 25.5t-26 62.5q0 36 25.5 61.5t62.5 25.5
q32 0 54.5 -18t31.5 -43q3 -7 8.5 -18t14.5 -21.5t22 -18t31 -7.5q16 0 31 7t26 18t17.5 24.5t6.5 26.5q0 31 -10.5 57.5t-29.5 46t-45 30.5t-57 11h-67q-2 0 -12 7.5t-22.5 17.5t-23.5 19t-14 12q-11 11 -10 22.5t8.5 18.5t19.5 7t24 -12q3 -3 8 -14.5t9.5 -23.5t8.5 -21.5
t7 -9.5t10.5 6.5t18.5 17t25.5 24.5t29.5 28l36 36t40 41q5 5 12.5 2.5t13.5 -8.5t8 -14.5t-5 -15.5l-56 -43q-24 -18 -50.5 -38t-47.5 -35h32q34 0 64.5 -13.5t53.5 -36.5t36.5 -54t13.5 -65q0 -8 -1 -12q4 -9 11 -20t18 -20.5t27 -16.5t37 -7q26 0 44 14.5t26.5 36.5
t7.5 47.5t-12 47.5t-32 36.5t-52 14.5q-17 0 -25 7.5t-8 16.5t7 16.5t19 7.5q33 0 57 -16t40.5 -41t24.5 -54t8 -55zM144 100q0 21 -16 36t-39 15t-40 -15t-17 -36t17 -36t40 -15t39 15t16 36z" />
    <glyph glyph-name="HIN_NNA_HALANT" unicode="&#xc2f;" horiz-adv-x="737" 
d="M427 339q-16 -13 -31 -25.5t-28 -22.5q30 -5 52.5 -20.5t38.5 -37.5t24 -49.5t8 -55.5q0 -16 -3 -31q11 -17 30.5 -32.5t53.5 -15.5q26 0 44 14.5t26.5 36.5t7.5 47.5t-12 47.5t-32 36.5t-52 14.5q-17 0 -25 7.5t-8 16.5t7 16.5t19 7.5q33 0 57 -16t40.5 -41t24.5 -54
t8 -55t-6.5 -49.5t-19.5 -41t-33 -27.5t-46 -10q-38 0 -59 18.5t-32 41.5l-3 5q-12 -29 -36 -47t-59 -18q-20 0 -36 7.5t-28.5 20t-21.5 28t-15 31.5q-26 -48 -60.5 -67.5t-74.5 -19.5q-30 0 -57 11.5t-47 31.5t-31.5 47t-11.5 57t11.5 57t31.5 47t47 31.5t57 11.5
q36 0 63.5 -13.5t46 -35t28 -47.5t9.5 -50q0 -4 -1 -18t-1 -18q3 -9 9.5 -20t17 -20.5t26.5 -16t38 -6.5q18 0 32.5 9t25 24t16 34.5t5.5 39.5q0 15 -6.5 34.5t-21.5 36.5t-38 29t-56 12h-10q-9 0 -11 8q-9 4 -19.5 10t-20.5 11.5t-17.5 10t-9.5 7.5q-11 11 -10 22.5t8.5 18
t19.5 7t24 -11.5q3 -4 8.5 -12.5t11.5 -17.5t12 -17t10 -10h4q8 5 28.5 27t44.5 48l67 76q5 5 13 3t14 -8.5t8 -15t-5 -15.5zM264 157q0 22 -9.5 42t-25.5 35t-37 24t-43 9q-23 0 -44 -9t-37 -24t-25.5 -35t-9.5 -42q0 -24 10 -43.5t26.5 -34t37.5 -22.5t42 -8q22 0 43 8.5
t37 23t25.5 34t9.5 42.5z" />
    <glyph glyph-name="HIN_TA_HALANT" unicode="&#xc30;" horiz-adv-x="344" 
d="M331 408q-26 -20 -49.5 -37t-43.5 -33q-18 -13 -34 -25t-30 -22q25 -5 47 -17.5t38.5 -32t25.5 -43.5t9 -51q0 -30 -11.5 -57t-31.5 -47t-46.5 -31.5t-57.5 -11.5q-30 0 -57 11.5t-47 31.5t-31.5 47t-11.5 57q0 48 27.5 86t71.5 53q-15 8 -29 16t-17 12q-11 11 -10 22
t8.5 17.5t19.5 7t24 -10.5q3 -3 8.5 -11.5t11 -17.5t11 -17t9.5 -11q2 0 4 0.5t4 0.5q9 6 31.5 27.5t49.5 46.5l78 76q5 5 13 3t14 -8t7.5 -15t-5.5 -16zM264 157q0 22 -9.5 42t-25.5 35t-37 24t-43 9q-23 0 -44 -9t-37 -24t-25.5 -35t-9.5 -42q0 -24 10 -43.5t26.5 -34
t37.5 -22.5t42 -8q22 0 43 8.5t37 23t25.5 34t9.5 42.5z" />
    <glyph glyph-name="HIN_THA_HALANT" unicode="&#xc31;" horiz-adv-x="438" 
d="M305 151q0 -11 -7 -12q-5 -2 -7 -1h-122q-2 0 -6 2q-5 3 -5 10t5 10q4 2 6 2h95q-11 8 -21 20q-8 10 -14 23t-6 30q0 25 15.5 42t40.5 17q32 0 54 -22t33.5 -54.5t12 -70.5t-11 -70.5t-36 -54.5t-62.5 -22q-19 0 -33.5 7.5t-25.5 16.5q-6 5 -11 11.5t-10 13.5
q-5 -7 -10.5 -13.5t-11.5 -11.5q-11 -9 -25.5 -16.5t-33.5 -7.5q-38 0 -62 22t-35.5 54.5t-10.5 70.5t12 70.5t32 54.5t50 22q24 0 43.5 -18.5t19.5 -43.5q0 -26 -18.5 -41.5t-44.5 -15.5q-18 0 -31.5 8t-27.5 22q-1 0 -4 -11.5t-4.5 -29t1 -37.5t11 -37.5t25 -29
t44.5 -11.5q20 0 33.5 8t21.5 19q10 10 15 27q0 2 2 4q4 4 9 4q4 0 8 -4l3 -4q4 -17 15 -27q8 -11 21 -19t33 -8q29 0 47.5 15.5t28 38t9.5 49.5t-7.5 49.5t-23 38t-37.5 15.5q-11 0 -19 -11.5t-8 -22.5q0 -16 7 -25.5t16 -16.5t16 -13t7 -15zM130 231q0 12 -11 24t-25 12
q-12 0 -21 -5t-15.5 -12t-10 -14.5t-3.5 -11.5q6 -8 14 -14q7 -5 16 -9t20 -4q14 0 25 8t11 26z" />
    <glyph glyph-name="HIN_DA_HALANT" unicode="&#xc32;" horiz-adv-x="401" 
d="M260 239q-16 0 -23 8t-7 17t6 17t17 8q33 0 56 -21.5t33 -53.5t6 -69.5t-24 -69.5t-57.5 -53.5t-94.5 -21.5q-36 0 -67.5 11.5t-55 32.5t-36.5 51t-13 66q0 23 8.5 46.5t23 43t34 31.5t42.5 12q32 0 50 -20t18 -46q0 -28 -20 -47.5t-48 -19.5q-20 0 -32.5 7.5t-19.5 17.5
t-10 20t-3 15q-7 -7 -11 -22.5t-2 -34.5t10 -39.5t24.5 -37t43 -27.5t64.5 -11q46 0 77 14t48.5 35t22 46t-1 46t-21 35t-37.5 14zM108 188q20 0 30 12t10 26t-10 26t-30 12q-16 0 -29.5 -8.5t-13.5 -12.5q0 -17 4 -28t12.5 -19t26.5 -8z" />
    <glyph glyph-name="HIN_DHA_HALANT" unicode="&#xc33;" horiz-adv-x="297" 
d="M335 408q-26 -20 -49.5 -37t-43.5 -33l-62 -46q12 -2 23.5 -7t21 -14t15.5 -21.5t6 -29.5q0 -22 -8.5 -37t-22 -25.5t-31 -17.5t-34.5 -12q21 -10 35.5 -24.5t14.5 -39.5q0 -18 -8.5 -30.5t-21 -20t-26.5 -10.5t-26 -3q-14 0 -28 3.5t-25.5 11t-19 19.5t-7.5 30
q0 23 11.5 37t29.5 24q-15 4 -29 8.5t-25 13t-18 21t-7 31.5q0 13 6 25t15.5 21t22 14t25.5 5q21 0 37 -14.5t16 -35.5q0 -14 -6.5 -24t-17 -16t-23.5 -7.5t-25 0.5q13 -8 30 -14.5t35 -12.5q18 7 36.5 13.5t33.5 14.5t24 19.5t9 28.5q0 29 -18 40.5t-41 11.5h-15h-5
q-8 0 -11 6q-9 4 -20 10t-21.5 11.5t-19 10.5t-10.5 8q-11 11 -10 22t9 17.5t20 7t23 -10.5q3 -4 8.5 -12t11.5 -16.5t11.5 -16.5t9.5 -11h8q9 6 31.5 27.5t48.5 46.5l78 76q5 5 13 3t14 -8t7.5 -15t-5.5 -16zM151 77q0 17 -11 25t-28 13q-19 -7 -31 -15.5t-12 -24.5
t13 -24.5t28 -8.5t28 8.5t13 26.5zM99 214q0 13 -11 19.5t-24.5 5t-24.5 -11t-11 -27.5v-4q7 -7 19 -9t23.5 0t20 9t8.5 18z" />
    <glyph glyph-name="HIN_PA_HALANT" unicode="&#xc35;" horiz-adv-x="411" 
d="M360 125q0 -24 -7.5 -47t-21.5 -40t-34.5 -27.5t-46.5 -10.5q-23 0 -38 10t-25 22q-11 13 -18 33q-8 -18 -20 -33q-10 -12 -25.5 -22t-35.5 -10q-36 0 -62 25.5t-26 62.5q0 36 25.5 61.5t62.5 25.5q32 0 54.5 -18t31.5 -43q3 -7 8.5 -18t14.5 -21.5t22 -18t31 -7.5
q16 0 31 7t26 18t17.5 24.5t6.5 26.5q0 31 -10.5 57.5t-29.5 46t-45 30.5t-57 11h-67q-2 0 -12 7.5t-22.5 17.5t-23.5 19t-14 12q-11 11 -10 22.5t8.5 18.5t19.5 7t24 -12q3 -3 8 -14.5t9.5 -23.5t8.5 -21.5t7 -9.5t10.5 6.5t18.5 17t25.5 24.5t29.5 28l36 36t40 41
q5 5 12.5 2.5t13.5 -8.5t8 -14.5t-5 -15.5l-56 -43q-24 -18 -50.5 -38t-47.5 -35h32q34 0 64.5 -13.5t53.5 -36.5t36.5 -54t13.5 -65zM144 100q0 21 -16 36t-39 15t-40 -15t-17 -36t17 -36t40 -15t39 15t16 36z" />
    <glyph glyph-name="HIN_PHA_HALANT" unicode="&#xc36;" horiz-adv-x="289" 
d="M325 408q-26 -20 -49.5 -37t-43.5 -33l-60 -44h3q12 0 24 -6.5t21.5 -16.5t15.5 -22.5t6 -24.5q0 -20 -10 -34t-24 -26q30 -36 30 -74t-21.5 -64t-59.5 -26q-32 0 -49.5 19t-17.5 50q0 18 7 32.5t18.5 26t25 21t26.5 18.5q-13 11 -28.5 18t-30.5 7q-33 0 -43.5 -12.5
t-10.5 -28.5q0 -20 -8.5 -28.5t-18.5 -8.5t-18.5 7t-8.5 18q0 21 10 36t25 25.5t33 15.5t33 5q23 0 46 -10.5t42 -27.5q11 9 18 19t7 22q0 14 -12 29t-27 15h-40h-1q-2 0 -14.5 6t-27.5 13.5t-28.5 15.5t-16.5 11q-11 11 -10 22t9 17.5t20 7t23 -10.5q3 -4 8.5 -12
t11.5 -16.5t11.5 -16.5t9.5 -11h8q9 6 31.5 27.5t48.5 46.5l78 76q5 5 13 3t14 -8t7.5 -15t-5.5 -16zM203 105q0 23 -17 43q-20 -15 -37.5 -30t-17.5 -36q0 -18 11 -24t24.5 -2.5t25 16t11.5 33.5z" />
    <glyph glyph-name="HIN_BA_HALANT" unicode="&#xc37;" horiz-adv-x="412" 
d="M404 -27q11 -11 6 -26t-25 -15q-16 0 -29 9t-21.5 23t-11.5 32t1 35q-13 -14 -31.5 -22.5t-42.5 -8.5q-23 0 -38 8.5t-25 19.5q-11 13 -18 28q-5 -8 -10 -15t-10 -13q-10 -11 -25.5 -19.5t-35.5 -8.5q-37 0 -62.5 25.5t-25.5 62.5q0 36 25.5 61.5t62.5 25.5q32 0 55 -20
t29 -50q3 -7 9 -16.5t15 -18.5t22.5 -15t31.5 -6q27 0 45 14.5t26 36t6.5 47t-12.5 47t-32 36t-51 14.5q-16 0 -23 8t-7 17t6 17t17 8q38 0 66 -23.5t43.5 -58.5t18.5 -74.5t-9 -72.5q0 -37 7 -53.5t17 -23t20 -8t16 -7.5zM185 364q-18 -13 -35.5 -25.5t-31 -22.5t-22.5 -16
t-10 -6q-2 0 -14.5 6t-27.5 14t-28 15.5t-16 10.5q-11 11 -10 22.5t8.5 18t19.5 7t23 -11.5q4 -4 10.5 -13.5t13 -19.5t12.5 -17.5t9 -7.5q2 0 10 6.5t19.5 17t26 24.5t29.5 28l36 36l41 41q6 5 14 3t14 -8.5t7.5 -15t-5.5 -15.5zM144 100q0 21 -16.5 36t-39.5 15
q-24 0 -40 -15t-16 -36t16 -36t40 -15q23 0 39.5 15t16.5 36z" />
    <glyph glyph-name="HIN_BHA_HALANT" unicode="&#xc38;" horiz-adv-x="385" 
d="M239 0q-25 0 -42 11t-28.5 28t-20.5 36.5t-18.5 36.5t-22 28t-30.5 11q-19 0 -31.5 -15t-12.5 -32q0 -16 7 -27t15.5 -20t15.5 -17t7 -17q0 -11 -8 -17t-19 -6q-13 0 -22.5 10.5t-16 24.5t-9.5 29.5t-3 25.5q0 33 20 59t55 26q22 0 36.5 -9.5t26 -23.5t21 -30t20 -30
t25 -23.5t35.5 -9.5q24 0 39.5 14.5t22.5 36t5.5 47t-10.5 47t-26 36t-41 14.5q-15 0 -22 8t-7 17t6 17t16 8q35 0 59.5 -22t38 -54.5t15.5 -70.5t-7.5 -70.5t-31.5 -54.5t-57 -22zM185 364q-18 -13 -35.5 -25.5t-31 -22.5t-22.5 -16t-10 -6q-2 0 -14.5 6t-27.5 14t-28 15.5
t-16 10.5q-11 11 -10 22.5t8.5 18t19.5 7t23 -11.5q4 -4 10.5 -13.5t13 -19.5t12.5 -17.5t9 -7.5q2 0 10 6.5t19.5 17t26 24.5t29.5 28l36 36l41 41q6 5 14 3t14 -8.5t7.5 -15t-5.5 -15.5z" />
    <glyph glyph-name="HIN_MA_HALANT" unicode="&#xc39;" horiz-adv-x="605" 
d="M550 206q0 -16 -7 -30.5t-18.5 -26t-26.5 -18t-31 -6.5t-30 7t-25 18t-17.5 26t-6.5 30q0 13 3.5 23.5t14.5 21.5h-95q25 -31 36 -74t5 -82.5t-31 -67t-71 -27.5q-23 0 -38 8.5t-25 19.5q-11 13 -18 28q-9 -25 -31 -40.5t-50 -15.5q-37 0 -62.5 25.5t-25.5 62.5
q0 36 25.5 61.5t62.5 25.5q32 0 55.5 -20t30.5 -50q3 -7 8.5 -16.5t14.5 -18.5t22 -15t31 -6q27 0 45 14.5t26 36t6.5 47t-12.5 47t-32 36t-51 14.5q-22 0 -27.5 13.5t0.5 24.5q3 12 19 12h243q38 0 60.5 -26.5t22.5 -61.5zM185 364q-18 -13 -35.5 -25.5t-31 -22.5
t-22.5 -16t-10 -6q-2 0 -14.5 6t-27.5 14t-28 15.5t-16 10.5q-11 11 -10 22.5t8.5 18t19.5 7t23 -11.5q4 -4 10.5 -13.5t13 -19.5t12.5 -17.5t9 -7.5q2 0 10 6.5t19.5 17t26 24.5t29.5 28l36 36l41 41q6 5 14 3t14 -8.5t7.5 -15t-5.5 -15.5zM144 100q0 21 -16.5 36t-39.5 15
q-24 0 -40 -15t-16 -36t16 -36t40 -15q23 0 39.5 15t16.5 36zM524 213q0 23 -16.5 37.5t-38.5 14.5t-38.5 -15t-16.5 -35q0 -22 17.5 -34.5t39.5 -12.5q19 0 36 11.5t17 33.5z" />
    <glyph glyph-name="HIN_LLA_HALANT" unicode="&#xc3e;" horiz-adv-x="186" 
d="M146 227q0 -16 -7 -31t-18.5 -26t-26.5 -18t-31 -7t-30 7t-25 18.5t-17.5 26t-6.5 30.5q0 12 3.5 22.5t14.5 21.5h-301q-6 2 -10 4t-7 6t-3 11q0 6 3 10.5t7 6.5q6 4 10 5h362q38 0 60.5 -26.5t22.5 -60.5zM120 234q0 23 -16.5 37t-37.5 14q-23 0 -39.5 -14.5
t-16.5 -35.5q0 -22 17.5 -34.5t39.5 -12.5q20 0 36.5 11.5t16.5 34.5z" />
    <glyph glyph-name="HIN_VA_HALANT" unicode="&#xc3f;" horiz-adv-x="12" 
d="M-110 405q1 -1 0 -13t-7 -26.5t-19 -26t-37 -11.5q-34 0 -49 20t-12 44.5t23 44.5t56 20q31 0 52.5 -14t31.5 -35t8.5 -46t-15 -46t-40 -35t-66.5 -14q-16 0 -39 7t-37 21q-5 5 -4 11.5t5.5 11t10.5 6t12 -4.5q1 -1 6.5 -5t14 -8t20 -7.5t25.5 -3.5q23 0 41.5 10.5
t28 26.5t8.5 35.5t-18 37.5zM-135 420q-4 4 -15.5 4t-23.5 -4.5t-21.5 -14t-9.5 -25.5q0 -14 11 -22.5t23 -8.5q16 0 25.5 9.5t13 22t2.5 24t-5 15.5z" />
    <glyph glyph-name="HIN_SHA_HALANT" unicode="&#xc40;" horiz-adv-x="12" 
d="M-44 503q0 -8 -3.5 -14t-11.5 -6t-12.5 4t-4.5 7q0 5 -8 12.5t-21 7.5t-23 -9t-10 -23q0 -15 12 -29q36 -11 51.5 -41.5t9 -62.5t-36 -57t-84.5 -25q-15 0 -38 7t-37 21q-5 5 -4 11.5t5.5 11t10.5 6t12 -4.5q1 -1 6.5 -5t14 -8t20 -7.5t25.5 -3.5q22 0 41 10.5t29 26.5
t8.5 35.5t-18.5 37.5q1 -1 0 -13t-7 -26.5t-19 -26t-37 -11.5q-34 0 -49 20t-12.5 44.5t22 44.5t55.5 20q-11 17 -11 35q0 26 19 44t48 18q23 0 40.5 -14.5t17.5 -36.5zM-137 420q-4 4 -15.5 4t-23.5 -4.5t-21.5 -14t-9.5 -25.5q0 -14 11.5 -22.5t23.5 -8.5q16 0 25 9.5
t12.5 22t2.5 24t-5 15.5z" />
    <glyph glyph-name="HIN_SHHA_HALANT" unicode="&#xc41;" horiz-adv-x="187" 
d="M127 128q0 -26 -6.5 -49.5t-19.5 -41t-33 -27.5t-46 -10q-38 0 -59 18.5t-32 41.5q-11 24 -16 61l8 9q1 -1 5.5 -13.5t15.5 -27.5t30 -27.5t48 -12.5q26 0 44 14.5t26.5 36.5t7.5 47.5t-12 47.5t-32 36.5t-52 14.5q-17 0 -25 7.5t-8 16.5t7 16.5t19 7.5q33 0 57 -16
t40.5 -41t24.5 -54t8 -55z" />
    <glyph glyph-name="HIN_SA_HALANT" unicode="&#xc42;" horiz-adv-x="396" 
d="M336 207q0 -16 -7 -31t-18.5 -26t-26.5 -18t-31 -7t-30 7t-25 18.5t-17.5 26.5t-6.5 30q0 12 3.5 22.5t14.5 21.5h-109q22 -26 33 -59.5t11 -63.5q0 -26 -6.5 -49.5t-19.5 -41t-33 -27.5t-46 -10q-38 0 -59 18.5t-32 41.5q-11 24 -16 61l8 9q1 0 5.5 -12.5t15 -28
t29.5 -28t49 -12.5q26 0 44 14.5t26.5 36.5t7.5 47.5t-12 47.5t-32 36.5t-52 14.5q-17 0 -25 7.5t-8 16.5t7 16.5t19 7.5h256q38 0 60.5 -26.5t22.5 -60.5zM310 214q0 23 -16.5 37t-37.5 14q-23 0 -39.5 -14.5t-16.5 -35.5q0 -22 18 -34.5t39 -12.5q20 0 36.5 11.5
t16.5 34.5z" />
    <glyph glyph-name="HIN_HA_HALANT" unicode="&#xc43;" horiz-adv-x="161" 
d="M138 -14q0 -46 -9 -92t-28.5 -83.5t-50 -61t-73.5 -23.5q-31 0 -54 10.5t-38.5 27t-23.5 35.5t-8 37q0 20 5.5 39t17.5 33.5t29.5 23t41.5 8.5q31 0 50 -19.5t19 -48.5q0 -35 -20.5 -50t-45.5 -14t-45.5 17.5t-20.5 46.5q-8 -8 -8 -33q0 -10 5 -23.5t16 -25.5t30 -20.5
t46 -8.5q41 0 68 21.5t43.5 55t23 73t6.5 75.5q0 85 -16.5 137t-38.5 80t-44 37t-34 9q-7 0 -12 7t-5.5 15t5 15t19.5 7q33 0 60.5 -24.5t47.5 -66.5t31 -97.5t11 -118.5zM-11 -130q0 18 -9 28t-22 12.5t-27.5 -1.5t-25.5 -15q0 -25 9 -43t37 -18q15 0 26.5 11t11.5 26z" />
    <glyph glyph-name="HIN_KA_NUKTA" unicode="&#xc44;" horiz-adv-x="425" 
d="M370 206q0 -16 -7 -30.5t-18.5 -26t-26.5 -18t-31 -6.5t-30 7t-25 18t-17.5 26t-6.5 30q0 13 3.5 23.5t14.5 21.5h-161q34 -41 53.5 -110.5t19.5 -154.5q0 -46 -9 -92t-28.5 -83.5t-50 -61t-73.5 -23.5q-31 0 -54 10.5t-38.5 27t-23.5 35.5t-8 37q0 20 5.5 39t17.5 33.5
t29.5 23t41.5 8.5q31 0 50 -19.5t19 -48.5q0 -35 -20.5 -50t-45.5 -14t-45.5 17.5t-20.5 46.5q-8 -8 -8 -33q0 -10 5 -23.5t16 -25.5t30 -20.5t46 -8.5q41 0 68 21.5t43.5 55t23 73t6.5 75.5q0 85 -16.5 137t-38.5 80t-44 37t-34 9q-9 0 -14.5 11t-0.5 21q1 13 18 13h303
q38 0 60.5 -26.5t22.5 -61.5zM344 213q0 23 -16.5 37.5t-38.5 14.5t-38.5 -15t-16.5 -35q0 -22 17.5 -34.5t39.5 -12.5q19 0 36 11.5t17 33.5zM-11 -130q0 18 -9 28t-22 12.5t-27.5 -1.5t-25.5 -15q0 -25 9 -43t37 -18q15 0 26.5 11t11.5 26z" />
    <glyph glyph-name="HIN_GA_NUKTA" unicode="&#xc46;" horiz-adv-x="12" 
d="M-82 342q0 -31 -21.5 -53t-52.5 -22h-59q-5 0 -9.5 3.5t-4.5 9.5t4.5 9.5t9.5 3.5h59q16 0 28.5 13.5t12.5 28.5t-12.5 26t-28.5 11h-233q-6 0 -14 6t-8 15t7 15.5t15 6.5h233q31 0 52.5 -21.5t21.5 -51.5z" />
    <glyph glyph-name="HIN_JA_NUKTA" unicode="&#xc47;" horiz-adv-x="12" 
d="M-77 475q0 -11 -9.5 -15t-17.5 4q-6 6 -11 16t-23 10q-17 0 -25.5 -11t-8.5 -22q0 -9 8 -21t16 -22q28 -3 47 -23.5t19 -48.5q0 -31 -21.5 -53t-52.5 -22h-59q-13 0 -13 14q0 12 13 12h59q15 0 28 13.5t13 28.5t-13 26t-28 11h-236q-6 2 -10 4q-9 4 -9 17q0 12 9 17
q6 4 10 5h214q-9 11 -16.5 23.5t-7.5 28.5q0 31 21 46.5t46 15.5q26 0 42 -16.5t16 -37.5z" />
    <glyph glyph-name="HIN_DDA_NUKTA" unicode="&#xc48;" horiz-adv-x="12" 
d="M-82 342q0 -31 -21.5 -53t-52.5 -22h-59q-5 0 -9.5 3.5t-4.5 9.5t4.5 9.5t9.5 3.5h59q16 0 28.5 13.5t12.5 28.5t-12.5 26t-28.5 11h-233q-6 0 -14 6t-8 15t7 15.5t15 6.5h233q31 0 52.5 -21.5t21.5 -51.5zM-37 -134q0 -8 -6 -13.5t-14 -5.5h-310q-29 0 -51 22t-22 51
q0 15 6 28t16 23.5t23 16.5t28 6q32 0 53 -21t21 -53q0 -8 -2.5 -13.5t-4.5 -10.5l-6 -9h249q8 0 14 -6.5t6 -14.5zM-318 -85q0 18 -15 30.5t-34 12.5q-18 0 -34 -12.5t-16 -30.5q0 -19 15.5 -31t34.5 -12t34 12t15 31z" />
    <glyph glyph-name="HIN_NA_NUKTA" unicode="&#xc4a;" horiz-adv-x="160" 
d="M24 407q41 -3 62 -28.5t21 -55.5t-20.5 -55.5t-62.5 -28.5q-16 -1 -30 5.5t-25 18t-17.5 26.5t-6.5 30q0 12 3.5 23t14.5 22h-24q-19 0 -27.5 -16.5t-8.5 -30.5l-3 -5q-4 -4 -9 -4t-9 4l-3 5q0 16 -8.5 31.5t-25.5 15.5h-54q-2 0 -7.5 -1.5t-11 -5.5t-10 -11t-4.5 -17
q0 -18 13 -26.5t31 -8.5h3q7 0 10.5 -4t4 -9t-3 -9t-11.5 -4h-3q-13 0 -27 4t-25.5 13t-19 22.5t-7.5 32.5q0 29 22 48t50 19h50q12 0 21 -7t15 -15q7 -11 12 -21q3 5 6.5 10.5t7.5 10.5q7 8 16 15t22 7h79zM81 326q0 23 -16.5 37.5t-37.5 14.5q-23 0 -39.5 -15t-16.5 -35
q0 -22 17.5 -35t39.5 -13q20 0 36.5 12t16.5 34z" />
    <glyph glyph-name="HIN_PHA_NUKTA" unicode="&#xc4b;" horiz-adv-x="160" 
d="M21 407q29 0 48 -12.5t28.5 -31t9 -40.5t-10 -40.5t-27.5 -31t-45 -12.5q-16 0 -30 6.5t-25 18t-17.5 26t-6.5 29.5q0 12 3.5 23t14.5 22h-24q-19 0 -27.5 -16.5t-8.5 -30.5l-3 -5q-4 -4 -9 -4t-9 4l-3 5q0 16 -8.5 31.5t-25.5 15.5h-54q-2 0 -7.5 -1.5t-11 -5.5t-10 -11
t-4.5 -17q0 -18 13 -26.5t31 -8.5h4q6 0 9.5 -4t3.5 -9t-3 -9t-10 -4h-4q-13 0 -27 4t-25.5 13t-19 22.5t-7.5 32.5q0 29 22 48t50 19h50q12 0 21.5 -7t15.5 -15q7 -11 12 -21q2 5 5.5 10.5t7.5 10.5q7 8 16 15t22 7h46q-12 13 -19.5 26.5t-7.5 27.5q0 32 20.5 47t46.5 15
q25 0 41.5 -16.5t16.5 -37.5q0 -11 -9.5 -15t-18.5 4q-3 3 -5 7.5t-5 8.5t-8.5 7t-14.5 3q-17 0 -26 -11t-9 -22t10 -22t18 -22zM81 326q0 23 -16.5 37.5t-37.5 14.5q-23 0 -39.5 -15t-16.5 -35q0 -22 17.5 -35t39.5 -13q20 0 36.5 12t16.5 34z" />
    <glyph glyph-name="HIN_YA_NUKTA" unicode="&#xc4c;" horiz-adv-x="186" 
d="M146 328q0 -16 -7 -31t-18.5 -26t-26.5 -18t-31 -7t-30 7t-25 18.5t-17.5 26.5t-6.5 30q0 12 3.5 22.5t14.5 21.5h-117q11 -8 16 -20.5t5 -26.5q0 -24 -17.5 -40.5t-41.5 -16.5h-147q-5 0 -11 4t-6 10t6 9t11 3h136q17 0 28.5 10.5t11.5 27.5t-11.5 28.5t-28.5 11.5h-131
q-6 0 -14 6t-8 15q-1 9 6.5 15.5t15.5 6.5h358q38 0 60.5 -26.5t22.5 -60.5zM120 335q0 23 -16 37t-38 14q-23 0 -39.5 -14.5t-16.5 -35.5q0 -22 18 -34.5t39 -12.5q20 0 36.5 11.5t16.5 34.5z" />
    <glyph glyph-name="HIN_RA_NUKTA" unicode="&#xc4d;" horiz-adv-x="12" 
d="M-2 458q0 -8 -6 -14.5t-14 -6.5h-206q-10 0 -18.5 -8t-8.5 -18q0 -11 10.5 -20.5t21.5 -9.5h130q8 0 12 -5t4 -12q0 -11 -7 -14.5t-16 -3.5h-118q-9 0 -15.5 -10t-6.5 -18q0 -24 21 -24h36q5 0 7.5 -4.5t2.5 -9.5q0 -3 -2.5 -7.5t-5.5 -4.5h-36q-26 0 -38 16t-12 33
q0 11 6.5 22.5t16.5 17.5l-1 2q-17 7 -28.5 24.5t-11.5 35.5q0 25 20 43.5t45 18.5h199q8 0 13.5 -8t5.5 -15z" />
    <glyph glyph-name="HIN_KA_RA" unicode="&#xc55;" horiz-adv-x="11" 
d="M-196 656q0 -55 -25 -55q-7 0 -7 18q1 5 1.5 9t0.5 7q0 47 -50 47q-51 0 -51 -48q0 -33 42 -55l-1 -4h-28q-49 25 -49 80q0 37 25.5 58t61.5 21q32 0 56 -20.5t24 -57.5z" />
    <glyph glyph-name="HIN_KA_RA1" unicode="&#xc56;" horiz-adv-x="12" 
d="M-37 -134q0 -8 -6 -13.5t-14 -5.5h-310q-29 0 -51 22t-22 51q0 15 6 28t16 23.5t23 16.5t28 6q32 0 53 -21t21 -53q0 -8 -2.5 -13.5t-4.5 -10.5l-6 -9h249q8 0 14 -6.5t6 -14.5zM-318 -85q0 18 -15 30.5t-34 12.5q-18 0 -34 -12.5t-16 -30.5q0 -19 15.5 -31t34.5 -12
t34 12t15 31z" />
    <glyph glyph-name="HIN_THA_RA" unicode="&#xc60;" horiz-adv-x="1034" 
d="M974 207q0 -16 -7 -31t-18.5 -26t-26.5 -18t-31 -7t-30 7t-25 18.5t-17.5 26.5t-6.5 30q0 12 3.5 22.5t14.5 21.5h-109q22 -26 33 -59.5t11 -63.5q0 -26 -6.5 -49.5t-19.5 -41t-33 -27.5t-46 -10q-38 0 -59 18.5t-32 41.5q-5 11 -8 20q-10 -35 -34.5 -57.5t-64.5 -22.5
q-38 0 -59 18.5t-32 41.5q-4 6 -7 16q-10 -33 -33.5 -54.5t-62.5 -21.5q-21 0 -37 10t-27 22q-11 13 -21 32q-5 -9 -10.5 -17t-11.5 -15q-11 -12 -26.5 -22t-36.5 -10q-34 0 -56 13t-32.5 32.5t-9.5 42t11.5 42t30.5 32.5t49 13q31 0 45 14.5t14 31.5t-12 31.5t-33 14.5
t-36 -12t-15 -33q0 -12 -8.5 -18t-18 -5.5t-18 7.5t-8.5 19q0 16 8.5 28.5t21.5 21.5t29 14t31 5q42 0 64.5 -22.5t24 -49t-20 -49t-68.5 -22.5q-29 0 -43.5 -16t-14 -35t16.5 -35t48 -16q21 0 35 10t23 22q10 12 16 33q0 2 2 4q4 4 9 4q4 0 8 -4l3 -4q4 -18 16 -33
q8 -12 22.5 -22t35.5 -10q27 0 44.5 14.5t26 36t7.5 47t-12 47t-32 36t-52 14.5q-16 0 -23 8t-7 17t6 17t17 8q33 0 57.5 -17t41 -43.5t24 -59t4.5 -63.5q4 -9 11.5 -20t18.5 -20t26 -15.5t36 -6.5q27 0 44.5 14.5t26 36.5t7.5 47.5t-12 47.5t-32 36.5t-52 14.5
q-17 0 -25 7.5t-8 16.5t7 16.5t19 7.5q33 0 57 -16t40.5 -41t24.5 -54t8 -55q0 -3 -0.5 -6t-0.5 -6q3 -8 9.5 -19.5t17.5 -22t27.5 -18t39.5 -7.5q27 0 44.5 14.5t26 36.5t7.5 47.5t-12 47.5t-32 36.5t-52 14.5q-17 0 -25 7.5t-8 16.5t7 16.5t19 7.5h256q38 0 60.5 -26.5
t22.5 -60.5zM948 214q0 23 -16.5 37t-37.5 14q-23 0 -39.5 -14.5t-16.5 -35.5q0 -22 18 -34.5t39 -12.5q20 0 36.5 11.5t16.5 34.5z" />
    <glyph glyph-name="HIN_DA_RA" unicode="&#xc61;" horiz-adv-x="754" 
d="M694 207q0 -16 -7 -31t-18.5 -26t-26.5 -18t-31 -7t-30 7t-25 18.5t-17.5 26.5t-6.5 30q0 12 3.5 22.5t14.5 21.5h-109q22 -26 33 -59.5t11 -63.5q0 -26 -6.5 -49.5t-19.5 -41t-33 -27.5t-46 -10q-38 0 -59 18.5t-32 41.5q-5 10 -8.5 21.5t-5.5 24.5q-4 -7 -7.5 -13.5
t-8.5 -13.5q7 -8 13 -17t11 -17q9 -14 16.5 -30t7.5 -29q0 -6 -4 -12t-10.5 -9.5t-14 -3t-13.5 6.5t-7 17.5t-1 24t-2 25.5t-12 23q-26 -26 -58.5 -42t-75.5 -16q-51 0 -79 23.5t-30 52t24.5 52t84.5 23.5q35 0 68 -11t65 -40q17 16 23.5 38.5t6.5 39.5q0 27 -16 50t-47 23
q-16 0 -27 -7t-18 -15q-4 -5 -7.5 -10.5t-5.5 -10.5q0 -2 -2 -5t-6 -3q-5 0 -7.5 3t-2.5 5q-3 14 -10 23q-6 9 -16 16.5t-26 7.5q-12 0 -20.5 -7t-12.5 -16t-3.5 -18.5t5.5 -14.5q3 -4 0.5 -8t-6.5 -8q-3 -3 -8.5 -2t-9.5 4q-8 8 -12 26t1 36.5t20 32.5t44 14q16 0 28 -7.5
t20 -16.5q8 -10 15 -23l8 12t9 11q8 9 20.5 16.5t28.5 7.5q48 0 69 -31t21 -85q0 -14 -4 -28t-10 -27q3 -7 8.5 -19.5t16.5 -24.5t28 -21t43 -9t44 14.5t26.5 36.5t7.5 47.5t-12 47.5t-32 36.5t-52 14.5q-17 0 -25 7.5t-8 16.5t7 16.5t19 7.5h256q38 0 60.5 -26.5
t22.5 -60.5zM221 82q-26 26 -56 34.5t-56 8.5q-39 0 -58.5 -12t-19.5 -26t19.5 -26t58.5 -12q13 0 28 1t30 5t29 10t25 17zM668 214q0 23 -16.5 37t-37.5 14q-23 0 -39.5 -14.5t-16.5 -35.5q0 -22 18 -34.5t39 -12.5q20 0 36.5 11.5t16.5 34.5z" />
    <glyph glyph-name="HIN_BA_RA" unicode="&#xc66;" horiz-adv-x="299" 
d="M249 250q0 -42 -4 -86t-16.5 -80.5t-37 -60t-66.5 -23.5t-66.5 23.5t-37.5 60.5t-17 81t-4 86t4 86t17 80t37.5 59.5t66.5 23.5t66.5 -23.5t37 -60t16.5 -80.5t4 -86zM193 389q0 16 -4.5 31t-13.5 27t-21.5 19.5t-28.5 7.5t-28.5 -7.5t-21.5 -19.5t-14 -27t-5 -31v-278
q0 -16 5 -31.5t14 -27.5t21.5 -19.5t28.5 -7.5t28.5 7.5t21.5 19.5t13.5 27.5t4.5 31.5v278z" />
    <glyph glyph-name="HIN_BHA_RA" unicode="&#xc67;" horiz-adv-x="246" 
d="M196 21q0 -15 -8 -19q-4 -3 -7 -2h-142q-4 -1 -8 2q-8 4 -8 19q0 7 2 10.5t4 5.5q3 2 7 3h47v374q-10 -7 -21 -13q-10 -5 -21.5 -9.5t-22.5 -4.5q-8 0 -13 4t-5 13q0 7 6 13q2 2 7.5 3t14 4t19.5 10t25 21q12 12 17 21t8 15t7 9t13 3t13.5 -7t4.5 -18v-438h48q3 -1 6 -3
q2 -2 4.5 -5.5t2.5 -10.5z" />
    <glyph glyph-name="HIN_MA_RA" unicode="&#xc68;" horiz-adv-x="276" 
d="M226 371q0 -40 -14 -71t-34.5 -55.5t-45 -44t-45 -37t-34.5 -35t-14 -36.5q1 -1 5 0t9 2t9.5 2t6.5 1q14 0 25.5 -7t21.5 -15.5t19 -15.5t18 -7q22 0 30 12.5t10.5 28t4 28t10.5 12.5q10 0 13.5 -21t-2 -45.5t-22.5 -45.5t-47 -21q-22 0 -35 9.5t-22 21.5t-16 21.5
t-16 9.5q-13 0 -16.5 -9.5t-4.5 -21.5t-3.5 -21.5t-14.5 -9.5q-13 0 -17.5 14.5t-4.5 33.5t3 37t5 25q4 15 14 28.5t22 25.5t25 22.5t24 19.5q10 8 18 16.5t16 17.5q23 29 36.5 60.5t13.5 69.5q0 17 -3 35t-11 33t-22 25t-35 10q-14 0 -27.5 -8.5t-23.5 -21.5t-16 -28.5
t-6 -28.5q0 -5 7.5 -5.5t16 -2.5t16 -9t7.5 -23q0 -14 -9.5 -25t-23.5 -11q-21 0 -32 15.5t-13 38.5t5.5 49.5t23.5 47.5t41 33t59 6q50 -9 72.5 -45.5t22.5 -83.5z" />
    <glyph glyph-name="HIN_YA_RA" unicode="&#xc69;" horiz-adv-x="275" 
d="M175 368q0 41 -10.5 64.5t-26.5 33t-35 7t-34.5 -13.5t-25.5 -28.5t-9 -37.5l2 -2q22 5 33.5 -5t13 -24.5t-7.5 -27.5t-28 -13q-16 0 -27 13.5t-15 33.5t-0.5 43t16 43t35 33.5t55.5 13.5q50 0 77.5 -28.5t34.5 -67t-6.5 -77t-44.5 -58.5v-2q34 -33 45.5 -79.5t2.5 -89
t-38 -72t-74 -29.5q-31 0 -53 13.5t-35 34t-17.5 44.5t-1.5 44.5t14 34t29 13.5t27 -12.5t8.5 -26.5t-12.5 -24t-36 -5l-3 -6q0 -20 10.5 -38t27 -29.5t36.5 -14.5t38 9q12 8 20.5 28t12 44.5t2.5 51t-7.5 48.5t-18.5 35t-30 12q-5 0 -13.5 -1.5t-17 -0.5t-15 5t-6.5 13
q0 10 6 14t14.5 4t17.5 -1.5t14 -2.5q16 -2 27 6.5t17.5 22t9 29t2.5 26.5z" />
    <glyph glyph-name="HIN_LA_RA" unicode="&#xc6a;" horiz-adv-x="283" 
d="M229 18q0 -8 -2.5 -11.5t-5.5 -5.5q-4 -2 -7 -1h-107q-4 -1 -8 1q-7 3 -7 17q0 12 6 16q3 2 6 2h32v76h-103q-10 0 -21.5 10t-11.5 27q0 2 6 17.5t15.5 39.5t22 54t25.5 61q31 73 70 165q0 3 4 7q3 3 8.5 5.5t16.5 2.5t16.5 -2.5t5.5 -12.5v-347h32q5 0 7.5 -4t2.5 -9.5
t-2.5 -9.5t-7.5 -4h-34v-76h28q3 0 6 -2q2 -2 4.5 -5.5t2.5 -10.5zM138 401l-105 -246q0 -16 24 -16h81v262z" />
    <glyph glyph-name="HIN_VA_RA" unicode="&#xc6b;" horiz-adv-x="283" 
d="M224 477q0 -13 -9 -21.5t-22 -14t-27 -7.5t-24 -2q-24 0 -43.5 6.5t-40.5 15.5q-4 -19 -1.5 -43.5t2.5 -43.5q0 -14 -1.5 -27t-1.5 -27q12 14 30.5 22.5t37.5 8.5q34 0 57.5 -21t36 -53t14.5 -72t-7 -77t-28.5 -68t-49.5 -46q-9 -5 -21 -7.5t-22 -2.5q-32 0 -53.5 14
t-34 34.5t-15.5 44.5t2 44.5t17 34.5t30 14t26 -11.5t7.5 -25t-9 -24.5t-24.5 -10q-3 0 -7 1t-6 1q-5 0 -5 -4.5v-6.5q2 -30 19.5 -53.5t49.5 -23.5q23 0 38 13.5t24 33t12.5 42t3.5 40.5q0 13 0.5 40t-4 54t-16 47.5t-36.5 20.5q-20 0 -31.5 -10t-19.5 -21.5t-15 -21.5
t-17 -10q-16 0 -21.5 14t-5.5 32.5t3 36t3 24.5q2 28 0.5 56t-1.5 57q0 18 11 21.5t27.5 0.5t35 -8.5t33.5 -5.5q23 0 44 8.5t33 8.5q22 0 22 -22z" />
    <glyph glyph-name="HIN_SHA_RA" unicode="&#xc6c;" horiz-adv-x="286" 
d="M199 386q4 15 0.5 31t-12.5 29t-23 21.5t-30 8.5q-24 0 -39 -14.5t-24.5 -37t-13.5 -50.5t-5 -55.5t-0.5 -51.5t1.5 -38q10 20 31 37.5t46 17.5q38 0 62 -21t35 -53t9 -68.5t-15.5 -68.5t-38.5 -53t-61 -21q-38 0 -62 22t-37.5 54t-18 69t-3.5 66q0 23 0.5 54t4 63.5
t11.5 63.5t23 55.5t38.5 39.5t59.5 15q30 0 50.5 -13.5t31.5 -33.5t13 -43.5t-2.5 -43.5t-16 -33.5t-27.5 -13.5q-20 0 -28 13t-6 27t14 23.5t33 2.5zM185 152q0 56 -20 81t-44.5 22.5t-44.5 -30.5t-20 -78q0 -57 20 -88.5t44.5 -33t44.5 29t20 97.5z" />
    <glyph glyph-name="HIN_SHHA_RA" unicode="&#xc6d;" horiz-adv-x="280" 
d="M211 501q19 0 18.5 -21t-10.5 -47.5t-22.5 -50t-16.5 -28.5q-19 -60 -26 -125.5t3 -128.5q2 -17 9.5 -37t7.5 -37t-11.5 -24t-25 -2t-24.5 25t-11 58q0 88 16 170.5t55 162.5h-2q-29 -10 -43 -5.5t-22.5 14.5t-14.5 19.5t-19 9.5q-20 0 -23 -13.5t-2 -29.5t0 -29.5
t-16 -13.5q-12 0 -16.5 7.5t-4.5 17.5t1.5 20.5t0.5 17.5q-1 3 -3 11.5t-4 17.5t-3.5 16.5t-1.5 9.5q1 14 6.5 16.5t12.5 -0.5t14 -10t10 -13q19 26 38 24.5t34.5 -14t27 -27.5t16.5 -15q12 0 16.5 8.5t8 18.5t8.5 18.5t19 8.5z" />
    <glyph glyph-name="HIN_SA_RA" unicode="&#xc6e;" horiz-adv-x="278" 
d="M227 385q0 -35 -12.5 -67t-43.5 -52v-3q24 -18 37.5 -44.5t17.5 -55.5t-1 -58.5t-19 -53t-36 -38t-52 -14.5q-33 0 -57 15.5t-38.5 39.5t-19.5 54t-0.5 60t19 56t39.5 42q-11 13 -22.5 21.5t-20.5 24.5q-8 14 -11.5 31t-3.5 33q0 42 16.5 71t41.5 43.5t54 15t54 -12.5
t41.5 -40t16.5 -68zM141 283q11 2 20.5 17t14.5 36.5t5 45.5t-7 45t-22.5 34.5t-40.5 13.5q-28 0 -43 -16t-19.5 -39t0.5 -47.5t19 -41.5t33.5 -27.5t39.5 -20.5zM185 120q0 13 -3.5 28.5t-10 30.5t-15 28t-18.5 21q-8 6 -22 15t-23 9q-3 0 -8 -4t-10 -9.5t-9.5 -11
t-5.5 -8.5q-8 -21 -10.5 -34.5t-2.5 -36.5q0 -59 21.5 -89t47.5 -32.5t47.5 21.5t21.5 72z" />
    <glyph glyph-name="HIN_HA_RA" unicode="&#xc6f;" horiz-adv-x="286" 
d="M236 290q-1 -23 -1 -54t-3.5 -63.5t-11 -63.5t-22.5 -55.5t-39 -39.5t-59 -15q-31 0 -51 13.5t-31 33.5t-13.5 43.5t2 43.5t15.5 33.5t28 13.5q19 0 27.5 -13t7 -27t-13.5 -23.5t-33 -2.5q-5 -15 -1.5 -31t12.5 -29t23 -21.5t30 -8.5q24 0 39.5 14.5t24.5 37t13 50.5
t5 55.5t0.5 51t-0.5 38.5q-11 -20 -32 -37.5t-45 -17.5q-38 0 -62 21t-35 53t-9.5 68.5t15 68.5t38.5 53t61 21q38 0 62 -22t37 -54.5t17.5 -69t4.5 -65.5zM180 353q0 57 -20 88.5t-44.5 33t-44.5 -29t-20 -97.5q0 -56 20 -81t44.5 -22.5t44.5 30.5t20 78z" />
    <glyph glyph-name="HIN_HALF_NA1" unicode="&#x200b;" horiz-adv-x="0" 
d="M17 -515h-38v1833h38v-1833z" />
    <glyph glyph-name="HIN_MATRA_I3" unicode="&#x200c;" horiz-adv-x="0" 
d="M17 -515h-38v1833h38v-1833z" />
    <glyph glyph-name="HIN_KA_KA1" unicode="&#x200d;" horiz-adv-x="0" 
d="M17 -515h-38v1833h38v-1833z" />
    <glyph glyph-name="endash" unicode="&#x2013;" horiz-adv-x="404" 
d="M0 154v39h362v-39h-362z" />
    <glyph glyph-name="emdash" unicode="&#x2014;" horiz-adv-x="604" 
d="M0 154v39h562v-39h-562z" />
    <glyph glyph-name="quoteleft" unicode="&#x2018;" horiz-adv-x="123" 
d="M76 402q0 -15 -11 -22.5t-19 -7.5q-22 0 -34 18.5t-12 40.5q0 19 7.5 34t17.5 25.5t19 16t12 5.5l5 -11q-12 -7 -19 -15t-12.5 -18.5t-5.5 -25.5q0 -11 1 -14q0 -5 1 -6l6 5q7 5 14 5q8 0 19 -7.5t11 -22.5z" />
    <glyph glyph-name="quoteright" unicode="&#x2019;" horiz-adv-x="120" 
d="M76 453q0 -19 -7.5 -34t-17.5 -25.5t-19 -16t-12 -5.5l-5 11q10 4 18 14q7 8 13 19t6 26q0 4 -0.5 7.5t-0.5 6.5q-1 3 -1 6q-2 -4 -6 -5q-8 -5 -14 -5q-8 0 -19 7.5t-11 22.5t11 22.5t19 7.5q22 0 34 -18.5t12 -40.5z" />
    <glyph glyph-name="quotedblleft" unicode="&#x201c;" horiz-adv-x="243" 
d="M76 402q0 -15 -11 -22.5t-19 -7.5q-22 0 -34 18.5t-12 40.5q0 19 7.5 34t17.5 25.5t19 16t12 5.5l5 -11q-12 -7 -19 -15t-12.5 -18.5t-5.5 -25.5q0 -11 1 -14q0 -5 1 -6l6 5q7 5 14 5q8 0 19 -7.5t11 -22.5zM196 402q0 -15 -11 -22.5t-19 -7.5q-22 0 -34 18.5t-12 40.5
q0 19 7.5 34t17.5 25.5t19 16t12 5.5l5 -11q-12 -7 -19 -15t-12.5 -18.5t-5.5 -25.5q0 -11 1 -14q0 -5 1 -6l6 5q7 5 14 5q8 0 19 -7.5t11 -22.5z" />
    <glyph glyph-name="quotedblright" unicode="&#x201d;" horiz-adv-x="240" 
d="M76 453q0 -19 -7.5 -34t-17.5 -25.5t-19 -16t-12 -5.5l-5 11q10 4 18 14q7 8 13 19t6 26q0 4 -0.5 7.5t-0.5 6.5q-1 3 -1 6q-2 -4 -6 -5q-8 -5 -14 -5q-8 0 -19 7.5t-11 22.5t11 22.5t19 7.5q22 0 34 -18.5t12 -40.5zM196 453q0 -19 -7.5 -34t-17.5 -25.5t-19 -16
t-12 -5.5l-5 11q10 4 18 14q7 8 13 19t6 26q0 4 -0.5 7.5t-0.5 6.5q-1 3 -1 6q-2 -4 -6 -5q-8 -5 -14 -5q-8 0 -19 7.5t-11 22.5t11 22.5t19 7.5q22 0 34 -18.5t12 -40.5z" />
    <glyph glyph-name="bullet" unicode="&#x2022;" horiz-adv-x="483" 
d="M410 270q0 -39 -13.5 -71.5t-37 -55.5t-54.5 -35.5t-65 -12.5q-35 0 -66 12.5t-54 35t-36.5 55t-13.5 72.5q0 42 13.5 74.5t36.5 55.5t54 35t66 12q34 0 64.5 -12.5t54 -35.5t37.5 -56t14 -73z" />
    <glyph glyph-name="HIN_KA_CHA1" unicode="&#x20b9;" horiz-adv-x="394" 
d="M55 503h318l-26 -41h-94q12 -13 19 -27.5t11 -30.5h89l-23 -41h-65q-3 -29 -21 -60q-9 -15 -25.5 -27.5t-36 -21.5t-41.5 -13.5t-43 -4.5q0 -5 6 -13.5t16 -20.5q38 -48 80 -97t80 -97v-3q-18 0 -33 -0.5t-33 -0.5l-142 163l-48 56v42q9 0 17.5 -0.5t19.5 -0.5
q111 0 137 72q4 8 4 27h-192q24 41 26 41h161q-16 33 -57 50q-32 8 -50 8h-80z" />
    <glyph glyph-name="HIN_MATRA_R" unicode="&#x25cc;" horiz-adv-x="415" 
d="M322 330q-8 16 -19 28.5t-24 22.5l26 40q16 -12 29.5 -28t24.5 -36zM238 402q-7 3 -14.5 3.5t-15.5 0.5q-9 0 -17 -0.5t-16 -3.5l-6 47q11 3 19.5 5t18.5 2q8 0 18 -2t21 -5zM382 254q0 -12 -1 -24t-3 -23l-40 9q2 9 3 18t1 17q0 11 -1 20.5t-3 17.5l40 8q2 -12 3 -22.5
t1 -20.5zM359 148q-23 -41 -54 -63l-26 39q14 10 25 22.5t18 28.5zM135 381q-13 -10 -24.5 -22.5t-20.5 -28.5l-34 27q21 40 55 64zM38 207q-3 11 -4 22.5t-1 24.5q0 11 1 21.5t4 21.5l40 -8q-3 -17 -3 -38q0 -17 3 -35zM246 54q-9 -2 -19 -3t-20 -1q-21 0 -38 4l6 49
q14 -5 33 -5q8 0 15.5 1t14.5 4zM111 85q-35 24 -55 63l34 27q18 -30 45 -51z" />
    <glyph glyph-name="NULL" horiz-adv-x="0" 
 />
    <glyph glyph-name="glyph45" horiz-adv-x="770" 
d="M408 1991h-57l28 30zM400 -714v-34l-41 21l1 13h40z" />
    <glyph glyph-name="OM" 
d="M45 745h-62l32 44h62z" />
    <glyph glyph-name="HIN_SHORT_A" 
d="M45 745h-62l32 44h62z" />
    <glyph glyph-name="HIN_A" 
d="M45 745h-62l32 44h62z" />
    <glyph glyph-name="HIN_AA" 
d="M45 745h-62l32 44h62z" />
    <glyph glyph-name="HIN_I" 
d="M45 745h-62l32 44h62z" />
    <glyph glyph-name="HIN_II" 
d="M45 745h-62l32 44h62z" />
    <glyph glyph-name="HIN_II_ANUSVAR" 
d="M45 745h-62l32 44h62z" />
    <glyph glyph-name="HIN_U" 
d="M45 745h-62l32 44h62z" />
    <glyph glyph-name="HIN_UU" 
d="M45 745h-62l32 44h62z" />
    <glyph glyph-name="HIN_CHANDRA_E" 
d="M45 745h-62l32 44h62z" />
    <glyph glyph-name="HIN_SHORT_E" 
d="M45 745h-62l32 44h62z" />
    <glyph glyph-name="HIN_E" 
d="M45 745h-62l32 44h62z" />
    <glyph glyph-name="HIN_AI" 
d="M45 745h-62l32 44h62z" />
    <glyph glyph-name="HIN_CHANDRA_E_ANUSVAR" 
d="M45 745h-62l32 44h62z" />
    <glyph glyph-name="HIN_SHORT_E_ANUSVAR" 
d="M45 745h-62l32 44h62z" />
    <glyph glyph-name="HIN_E_ANUSVAR" 
d="M45 745h-62l32 44h62z" />
    <glyph glyph-name="HIN_AI_ANUSVAR" 
d="M45 745h-62l32 44h62z" />
    <glyph glyph-name="HIN_CHANDRA_O" 
d="M45 745h-62l32 44h62z" />
    <glyph glyph-name="HIN_SHORT_O" 
d="M45 745h-62l32 44h62z" />
    <glyph glyph-name="HIN_O" 
d="M45 745h-62l32 44h62z" />
    <glyph glyph-name="HIN_AU" 
d="M45 745h-62l32 44h62z" />
    <glyph glyph-name="HIN_CHANDRA_O_ANUSVAR" 
d="M45 745h-62l32 44h62z" />
    <glyph glyph-name="HIN_SHORT_O_ANUSVAR" 
d="M45 745h-62l32 44h62z" />
    <glyph glyph-name="HIN_O_ANUSVAR" 
d="M45 745h-62l32 44h62z" />
    <glyph glyph-name="HIN_AU_ANUSVAR" 
d="M45 745h-62l32 44h62z" />
    <glyph glyph-name="HIN_A_ANUSVAR" 
d="M45 745h-62l32 44h62z" />
    <glyph glyph-name="HIN_A_CHANDRA" 
d="M45 745h-62l32 44h62z" />
    <glyph glyph-name="HIN_A_VISARG" 
d="M45 745h-62l32 44h62z" />
    <glyph glyph-name="HIN_R" 
d="M45 745h-62l32 44h62z" />
    <glyph glyph-name="HIN_RR" 
d="M45 745h-62l32 44h62z" />
    <glyph glyph-name="HIN_L" 
d="M45 745h-62l32 44h62z" />
    <glyph glyph-name="HIN_LL" 
d="M45 745h-62l32 44h62z" />
    <glyph glyph-name="HIN_KA" 
d="M45 745h-62l32 44h62z" />
    <glyph glyph-name="HIN_KHA" 
d="M45 745h-62l32 44h62z" />
    <glyph glyph-name="HIN_GA" 
d="M45 745h-62l32 44h62z" />
    <glyph glyph-name="HIN_GHA" 
d="M45 745h-62l32 44h62z" />
    <glyph glyph-name="HIN_NGA" 
d="M45 745h-62l32 44h62z" />
    <glyph glyph-name="HIN_CHA" 
d="M45 745h-62l32 44h62z" />
    <glyph glyph-name="HIN_CHHA" 
d="M45 745h-62l32 44h62z" />
    <glyph glyph-name="HIN_JA" 
d="M45 745h-62l32 44h62z" />
    <glyph glyph-name="HIN_JHA" 
d="M45 745h-62l32 44h62z" />
    <glyph glyph-name="HIN_NYA" 
d="M45 745h-62l32 44h62z" />
    <glyph glyph-name="HIN_TTA" 
d="M45 745h-62l32 44h62z" />
    <glyph glyph-name="HIN_TTHA" 
d="M45 745h-62l32 44h62z" />
    <glyph glyph-name="HIN_DDA" 
d="M45 745h-62l32 44h62z" />
    <glyph glyph-name="HIN_DDHA" 
d="M45 745h-62l32 44h62z" />
    <glyph glyph-name="HIN_NNA" 
d="M45 745h-62l32 44h62z" />
    <glyph glyph-name="HIN_TA" 
d="M45 745h-62l32 44h62z" />
    <glyph glyph-name="HIN_THA" 
d="M45 745h-62l32 44h62z" />
    <glyph glyph-name="HIN_DA" 
d="M45 745h-62l32 44h62z" />
    <glyph glyph-name="HIN_DHA" 
d="M45 745h-62l32 44h62z" />
    <glyph glyph-name="HIN_NA" 
d="M45 745h-62l32 44h62z" />
    <glyph glyph-name="HIN_PA" 
d="M45 745h-62l32 44h62z" />
    <glyph glyph-name="HIN_PHA" 
d="M45 745h-62l32 44h62z" />
    <glyph glyph-name="HIN_BA" 
d="M45 745h-62l32 44h62z" />
    <glyph glyph-name="HIN_BHA" 
d="M45 745h-62l32 44h62z" />
    <glyph glyph-name="HIN_MA" 
d="M45 745h-62l32 44h62z" />
    <glyph glyph-name="HIN_YA" 
d="M45 745h-62l32 44h62z" />
    <glyph glyph-name="HIN_RA" 
d="M45 745h-62l32 44h62z" />
    <glyph glyph-name="HIN_LA" 
d="M45 745h-62l32 44h62z" />
    <glyph glyph-name="HIN_MARATHI_LA" 
d="M45 745h-62l32 44h62z" />
    <glyph glyph-name="HIN_LLA" 
d="M45 745h-62l32 44h62z" />
    <glyph glyph-name="HIN_VA" 
d="M45 745h-62l32 44h62z" />
    <glyph glyph-name="HIN_SHA" 
d="M45 745h-62l32 44h62z" />
    <glyph glyph-name="HIN_MARATHI_SHA" 
d="M45 745h-62l32 44h62z" />
    <glyph glyph-name="HIN_SHHA" 
d="M45 745h-62l32 44h62z" />
    <glyph glyph-name="HIN_SA" 
d="M45 745h-62l32 44h62z" />
    <glyph glyph-name="HIN_HA" 
d="M45 745h-62l32 44h62z" />
    <glyph glyph-name="HIN_HALF_KA" 
d="M45 745h-62l32 44h62z" />
    <glyph glyph-name="HIN_HALF_KHA" 
d="M45 745h-62l32 44h62z" />
    <glyph glyph-name="HIN_HALF_GA" 
d="M45 745h-62l32 44h62z" />
    <glyph glyph-name="HIN_HALF_GHA" 
d="M45 745h-62l32 44h62z" />
    <glyph glyph-name="HIN_HALF_NGA" 
d="M45 745h-62l32 44h62z" />
    <glyph glyph-name="HIN_HALF_DA" horiz-adv-x="88" 
d="M91 745h-62l32 44h63z" />
    <glyph glyph-name="HIN_HALF_PHA" horiz-adv-x="88" 
d="M91 745h-62l32 44h63z" />
    <glyph glyph-name="HIN_JHA_HALANT" horiz-adv-x="88" 
d="M91 745h-62l32 44h63z" />
    <glyph glyph-name="HIN_YA_HALANT" horiz-adv-x="88" 
d="M91 745h-62l32 44h63z" />
    <glyph glyph-name="HIN_RA_HALANT" horiz-adv-x="88" 
d="M91 745h-62l32 44h63z" />
    <glyph glyph-name="HIN_LA_HALANT" 
d="M45 745h-62l32 44h62z" />
    <glyph glyph-name="HIN_MARATHI_LA_HALANT" horiz-adv-x="433" 
d="M408 0h-310q-34 0 -56 13t-32.5 32.5t-9.5 42t11.5 42t30.5 32.5t49 13q31 0 45 14.5t14 31.5t-12 31.5t-33 14.5t-36 -12t-15 -33q0 -12 -8.5 -18t-18 -5.5t-18 7.5t-8.5 19q0 16 8.5 28.5t21.5 21.5t29 14t31 5q42 0 64.5 -22.5t24 -49t-20 -49t-68.5 -22.5
q-29 0 -43.5 -16t-14 -35t16.5 -35t48 -16h310v-49z" />
    <glyph glyph-name="HIN_KHA_NUKTA" 
d="M45 745h-62l32 44h62z" />
    <glyph glyph-name="HIN_DDHA_NUKTA" horiz-adv-x="476" 
 />
    <glyph glyph-name="HIN_LLA_NUKTA" 
d="M45 745h-62l32 44h62z" />
    <glyph glyph-name="HIN_HALF_KA_NUKTA" 
d="M45 745h-62l32 44h62z" />
    <glyph glyph-name="HIN_HALF_KHA_NUKTA" 
d="M45 745h-62l32 44h62z" />
    <glyph glyph-name="HIN_HALF_GA_NUKTA" 
d="M45 745h-62l32 44h62z" />
    <glyph glyph-name="HIN_HALF_JA_NUKTA" 
d="M45 745h-62l32 44h62z" />
    <glyph glyph-name="HIN_HALF_PHA_NUKTA" horiz-adv-x="90" 
d="M247 -330q-17 0 -43.5 -1.5t-55 0t-54.5 7.5t-42 22q-18 18 -29 56.5t-16.5 89.5t-6.5 110t1 118q2 69 7.5 143.5t15.5 156.5q0 6 3.5 10.5t8 5t8 -3.5t3.5 -13q-7 -78 -11 -148.5t-6 -135.5q-1 -55 0 -110t6 -102t14.5 -82.5t24.5 -50.5q13 -12 29 -18t36.5 -7.5
t46.5 -1t60 0.5q12 0 17.5 -7t5 -16t-6.5 -16t-16 -7z" />
    <glyph glyph-name="HIN_HALF_YA_NUKTA" horiz-adv-x="90" 
d="M247 -171q-17 0 -43.5 -1.5t-55 0t-54.5 7.5t-42 22q-18 18 -29 50t-16.5 71.5t-6 84t1.5 88.5q4 102 23 221q0 6 3.5 10.5t7.5 5t7.5 -3.5t3.5 -13q-7 -55 -11 -105.5t-6 -98.5q-1 -40 0 -81t6 -77t14.5 -64.5t24.5 -43.5q13 -12 29 -18t36.5 -7.5t46.5 -1t60 0.5
q12 0 17.5 -7t5 -16t-6.5 -16t-16 -7z" />
    <glyph glyph-name="HIN_KHA_RA" horiz-adv-x="12" 
d="M-40 -324q0 -8 -5.5 -13.5t-12.5 -5.5h-358q-15 0 -28 6t-23.5 16t-16.5 23t-6 28t6 28t16.5 23.5t23.5 16.5t28 6q31 0 52 -21t21 -53q0 -8 -2 -13.5t-4 -10.5l-6 -9h296q7 0 13 -6.5t6 -14.5zM-368 -275q0 18 -15 30.5t-33 12.5q-19 0 -34.5 -12.5t-15.5 -30.5
q0 -19 15.5 -31.5t34.5 -12.5q18 0 33 12.5t15 31.5z" />
    <glyph glyph-name="HIN_GA_RA" horiz-adv-x="12" 
d="M-61 -203q0 -8 -6 -13.5t-14 -5.5h-441q-15 0 -28 6t-23.5 16t-16.5 23t-6 28t6 28t16.5 23.5t23.5 16.5t28 6q31 0 52.5 -21t21.5 -53q0 -8 -2.5 -13.5t-4.5 -10.5l-6 -9h380q8 0 14 -6.5t6 -14.5zM-474 -154q0 19 -15 31t-33 12q-19 0 -34.5 -12t-15.5 -31t15.5 -31
t34.5 -12q18 0 33 12t15 31z" />
    <glyph glyph-name="HIN_GHA_RA" 
d="M45 745h-62l32 44h62z" />
    <glyph glyph-name="HIN_NGA_RA" horiz-adv-x="404" 
d="M277 339q-15 -12 -29.5 -24t-26.5 -21q30 -2 53.5 -17.5t40 -40.5t25.5 -56t9 -65q0 -21 -6 -41.5t-18 -37t-28.5 -26.5t-37.5 -10q-19 0 -32 9t-21 20q-11 13 -15 30q-6 -18 -16 -30q-9 -11 -23 -20t-34 -9q-35 0 -58 23.5t-23 54.5q0 23 7.5 38t17.5 26q11 11 26 20
h-37t-22.5 0.5t-13 2.5t-8.5 6q-6 6 -7 14t2 15t9.5 11.5t15.5 4.5q25 -8 48 -12q18 -5 34.5 -9.5t18.5 -6.5q9 -10 3 -19q-3 -4 -7 -7q-8 -2 -15 -5.5t-12 -7.5q-10 -8 -18 -19.5t-8 -29.5q0 -21 13.5 -36t39.5 -15q23 0 34 10t16 22q4 13 6 33q0 2 2 4q4 4 9 4q4 0 8 -4
l3 -4q1 -20 6 -33q5 -12 15 -22t30 -10q16 0 29 8t21.5 20t13 26t4.5 26q0 24 -7 48.5t-20.5 45t-34 33t-46.5 12.5h-17q-5 0 -7 1h-1q-2 0 -14.5 6t-27.5 13.5t-28 15.5t-16 11q-11 11 -10 22.5t8.5 18t19.5 7t24 -11.5q3 -4 9.5 -13.5t13 -19.5t12.5 -17.5t9 -7.5
q5 0 27 23.5t48 52.5l67 76q5 5 13 3t14 -8.5t8 -15t-5 -15.5zM396 562q0 -34 -22.5 -60.5t-60.5 -26.5h-302q-4 1 -10 5q-4 2 -7 6.5t-3 10.5q0 7 3 11t7 6t10 4h241q-11 11 -14.5 21.5t-3.5 22.5q0 16 6.5 30.5t17.5 26t25 18.5t30 7t31 -7t26.5 -18t18.5 -26t7 -31z
M370 555q0 23 -16.5 34.5t-36.5 11.5q-22 0 -39.5 -12.5t-17.5 -34.5q0 -21 16.5 -35.5t39.5 -14.5q21 0 37.5 14t16.5 37z" />
    <glyph glyph-name="HIN_CHA_RA" 
d="M45 745h-62l32 44h62z" />
    <glyph glyph-name="HIN_JA_RA" 
d="M45 745h-62l32 44h62z" />
    <glyph glyph-name="HIN_JHA_RA" 
d="M45 745h-62l32 44h62z" />
    <glyph glyph-name="HIN_TA_RA" 
d="M45 745h-62l32 44h62z" />
    <glyph glyph-name="HIN_TA_RA1" 
d="M45 745h-62l32 44h62z" />
    <glyph glyph-name="HIN_DHA_RA" horiz-adv-x="88" 
d="M91 745h-62l32 44h63z" />
    <glyph glyph-name="HIN_NA_RA" horiz-adv-x="4" 
d="M7 745h-62l32 44h64z" />
    <glyph glyph-name="HIN_PA_RA" 
d="M45 745h-62l32 44h62z" />
    <glyph glyph-name="HIN_PHA_RA" 
d="M45 745h-62l32 44h62z" />
    <glyph glyph-name="HIN_HA_R" 
d="M45 745h-62l32 44h62z" />
    <glyph glyph-name="HIN_CHHA_RA" 
d="M45 745h-62l32 44h62z" />
    <glyph glyph-name="HIN_TTA_RA" 
d="M45 745h-62l32 44h62z" />
    <glyph glyph-name="HIN_TTHA_RA" 
d="M45 745h-62l32 44h62z" />
    <glyph glyph-name="HIN_DDA_RA" 
d="M45 745h-62l32 44h62z" />
    <glyph glyph-name="HIN_DDHA_RA" 
d="M45 745h-62l32 44h62z" />
    <glyph glyph-name="HIN_LLA_RA" 
d="M45 745h-62l32 44h62z" />
    <glyph glyph-name="HIN_CHHA_RA_U" 
d="M45 745h-62l32 44h62z" />
    <glyph glyph-name="HIN_TTA_RA_U" 
d="M45 745h-62l32 44h62z" />
    <glyph glyph-name="HIN_TTHA_RA_U" 
d="M45 745h-62l32 44h62z" />
    <glyph glyph-name="HIN_DDA_RA_U" 
d="M45 745h-62l32 44h62z" />
    <glyph glyph-name="HIN_DDHA_RA_U" 
d="M45 745h-62l32 44h62z" />
    <glyph glyph-name="HIN_LLA_RA_U" 
d="M45 745h-62l32 44h62z" />
    <glyph glyph-name="HIN_CHHA_RA_UU" 
d="M45 745h-62l32 44h62z" />
    <glyph glyph-name="HIN_TTA_RA_UU" 
d="M45 745h-62l32 44h62z" />
    <glyph glyph-name="HIN_TTHA_RA_UU" 
d="M45 745h-62l32 44h62z" />
    <glyph glyph-name="HIN_DDA_RA_UU" 
d="M45 745h-62l32 44h62z" />
    <glyph glyph-name="HIN_DDHA_RA_UU" 
d="M45 745h-62l32 44h62z" />
    <glyph glyph-name="HIN_LLA_RA_UU" horiz-adv-x="293" 
d="M247 86q0 -16 -7.5 -31.5t-23.5 -27.5t-39.5 -19.5t-54.5 -7.5q-21 0 -42.5 6t-39 17.5t-29 28t-11.5 37.5q0 12 6 18t13.5 6.5t14 -3.5t6.5 -10q0 -16 8 -26t20.5 -15.5t27 -7.5t26.5 -2q45 0 67 15t22 33q0 10 -3 19t-13 16t-27.5 10.5t-45.5 3.5q-63 0 -89 16.5
t-26 48.5q0 16 8.5 31t23.5 26.5t36 18.5t47 7q19 0 49.5 -9t49.5 -28q12 -13 11.5 -23.5t-7 -16.5t-16 -6.5t-15.5 5.5q-1 1 -6.5 9t-14.5 17.5t-22 17t-29 7.5q-42 0 -64 -17.5t-22 -38.5t24 -30t62 -9q125 0 125 -86z" />
    <glyph glyph-name="HIN_HALF_KA_RA" horiz-adv-x="420" 
d="M368 125q0 -26 -6 -48.5t-18 -39.5t-31 -27t-45 -10q-22 0 -38 9.5t-27 20.5q-13 13 -22 31q-10 -17 -24 -31q-12 -11 -30 -20.5t-42 -9.5q-41 0 -62.5 23.5t-22.5 52t20 52t65 23.5q35 0 54.5 -10.5t39.5 -30.5q7 6 13.5 19t6.5 32q0 26 -8 43.5t-17 28.5q-10 13 -25 21
q2 -2 -0.5 -14.5t-10 -27t-21 -26t-32.5 -11.5q-35 0 -50 18.5t-11.5 41t23.5 41t56 18.5q26 0 48.5 -11.5t38.5 -30t25 -42.5t9 -49q0 -33 -10.5 -52t-13.5 -22l8 -10t9 -9q8 -8 21 -13.5t30 -5.5q21 0 35 8.5t23 21.5t12.5 29.5t3.5 31.5q0 16 -4.5 35t-15 35.5t-28 28
t-44.5 11.5q-16 0 -23 7t-7 15t6 15t17 7q33 0 57 -16.5t39 -41.5t22 -55t7 -56zM207 -17q2 -7 -2 -16.5t-24 -9.5t-24.5 9t-1.5 18q1 3 5 11.5t9 17.5q5 12 12 23q7 -11 12 -23q5 -9 8.5 -18t5.5 -12zM129 261q-5 5 -14 5.5t-12 0.5q-20 0 -31.5 -9.5t-14.5 -21.5t4 -21.5
t24 -9.5q20 0 32 19t12 37zM164 89q-11 10 -21 18q-11 7 -25 12.5t-33 5.5q-28 0 -41 -12t-12 -26t14.5 -26t38.5 -12q20 0 35 6t25 14q12 10 19 20z" />
    <glyph glyph-name="HIN_HALF_KHA_RA" horiz-adv-x="358" 
d="M303 68q0 -9 -1 -21t-4 -22.5t-9.5 -17.5t-17.5 -7q-8 0 -17 6.5t-9 16.5q0 9 6 27t6 54q0 27 -7 55.5t-20 52.5t-32 39.5t-44 15.5t-45 -15.5t-34 -39.5t-21.5 -52.5t-7.5 -55.5q0 -36 6 -54t6 -27q0 -10 -8.5 -16.5t-17.5 -6.5q-11 0 -17.5 7t-9.5 17.5t-4 22.5t-1 21
q0 28 9.5 66.5t28.5 74t48 60.5t68 25t67.5 -25t46.5 -60.5t26.5 -74t8.5 -66.5z" />
    <glyph glyph-name="HIN_HALF_GA_RA" horiz-adv-x="610" 
d="M550 128q0 -26 -6.5 -49.5t-19.5 -41t-33 -27.5t-46 -10q-38 0 -59 18.5t-32 41.5q-2 4 -3.5 7.5t-3.5 7.5q-9 -32 -33 -53.5t-64 -21.5q-23 0 -38 10t-25 23q-11 13 -18 33q-9 -25 -31 -45.5t-50 -20.5q-37 0 -62.5 25.5t-25.5 62.5q0 36 25.5 61.5t62.5 25.5
q32 0 54 -17.5t32 -42.5q3 -8 8.5 -19t14.5 -21.5t22 -18t31 -7.5q27 0 45 14.5t26 36t6.5 47t-12.5 47t-32 36t-51 14.5q-16 0 -23 8t-7 17t6 17t17 8q32 0 57 -17t41.5 -43.5t24 -59t5.5 -63.5q4 -9 11.5 -20t18.5 -20t26 -15.5t36 -6.5q26 0 44 14.5t26.5 36.5t7.5 47.5
t-12 47.5t-32 36.5t-52 14.5q-17 0 -25 7.5t-8 16.5t7 16.5t19 7.5q33 0 57 -16t40.5 -41t24.5 -54t8 -55zM144 100q0 21 -16.5 36t-39.5 15q-24 0 -40 -15t-16 -36t16 -36t40 -15q23 0 39.5 15t16.5 36zM188 -14q1 -4 2 -10t-1 -11.5t-7 -9.5t-16 -4q-20 0 -22.5 12.5
t0.5 21.5q1 3 4.5 10.5t7.5 15.5l10 19l10 -19q4 -8 7 -15t5 -10z" />
    <glyph glyph-name="HIN_HALF_GHA_RA" horiz-adv-x="411" 
d="M343 197q0 -5 -2 -6.5t-4 -3.5q-4 -2 -5 -2h-160q-9 -17 -25.5 -23.5t-34.5 -9t-35 -5.5t-26 -12q-16 -16 -19 -31.5t4 -27.5t21.5 -19.5t32.5 -7.5q23 0 38.5 9.5t26.5 21.5q13 15 20 31q0 2 2.5 5t7.5 3q4 0 6 -3t2 -5q2 -9 6.5 -16.5t9.5 -14.5q9 -12 24 -21.5
t38 -9.5q8 0 19.5 1.5t21.5 6t17 12.5t7 20q0 11 -4.5 15.5t-9.5 6.5q-8 2 -14 1q-7 0 -12 5.5t-5.5 11.5t4 11.5t15.5 5.5q17 0 28.5 -11t16.5 -27t3.5 -35t-11.5 -35t-28.5 -27t-46.5 -11q-26 0 -42.5 10t-26.5 23q-11 16 -18 34q-7 -17 -20 -34q-11 -13 -28.5 -23
t-43.5 -10q-16 0 -32.5 6t-30 17t-22 26t-8.5 34q0 16 5.5 28t12.5 21q7 10 18 18q10 10 30 14.5t40 9.5t34.5 14t14.5 30q0 25 -18.5 37t-33.5 12q-16 0 -26 -7.5t-16 -15.5q-7 -9 -10 -23q0 -11 -7 -17.5t-15.5 -7.5t-15.5 5t-7 21q0 18 9.5 31.5t23.5 22.5t28.5 13.5
t25.5 4.5q37 0 63 -23t23 -61h70l-16 58q2 8 4 11q2 4 7 7.5t13 3.5q14 0 19 -12q3 -5 3 -11l-17 -57h70q1 0 5 -2q6 -5 6 -11z" />
    <glyph glyph-name="HIN_HALF_CHA_RA" horiz-adv-x="404" 
d="M349 115q0 -21 -6 -41.5t-18 -37t-28.5 -26.5t-37.5 -10q-19 0 -32 9t-21 20q-11 13 -15 30q-6 -18 -16 -30q-9 -11 -23 -20t-34 -9q-35 0 -58 23.5t-23 54.5q0 23 7.5 38t17.5 26q11 11 26 20h-37t-22.5 0.5t-13 2.5t-8.5 6q-6 6 -7 14t2 15t9.5 11.5t15.5 4.5
q25 -8 48 -12q18 -5 34.5 -9.5t18.5 -6.5q9 -10 3 -19q-3 -4 -7 -7q-8 -2 -15 -5.5t-12 -7.5q-10 -8 -18 -19.5t-8 -29.5q0 -21 13.5 -36t39.5 -15q23 0 34 10t16 22q4 13 6 33q0 2 2 4q4 4 9 4q4 0 8 -4l3 -4q1 -20 6 -33q5 -12 15 -22t30 -10q16 0 29 8t21.5 20t13 26
t4.5 26q0 24 -7 48.5t-20.5 45t-34 33t-46.5 12.5h-17q-14 0 -14 13t15 13h16q31 0 56.5 -15t43 -39.5t27 -57t9.5 -67.5z" />
    <glyph glyph-name="HIN_HALF_JA_RA" horiz-adv-x="404" 
d="M349 115q0 -21 -6 -41.5t-18 -37t-28.5 -26.5t-37.5 -10q-19 0 -32 9t-21 20q-11 13 -15 30q-6 -18 -16 -30q-9 -11 -23 -20t-34 -9q-35 0 -58 23.5t-23 54.5q0 23 7.5 38t17.5 26q11 11 26 20h-37t-22.5 0.5t-13 2.5t-8.5 6q-6 6 -7 14t2 15t9.5 11.5t15.5 4.5
q25 -8 48 -12q18 -5 34.5 -9.5t18.5 -6.5q9 -10 3 -19q-3 -4 -7 -7q-8 -2 -15 -5.5t-12 -7.5q-10 -8 -18 -19.5t-8 -29.5q0 -21 13.5 -36t39.5 -15q23 0 34 10t16 22q4 13 6 33q0 2 2 4q4 4 9 4q4 0 8 -4l3 -4q1 -20 6 -33q5 -12 15 -22t30 -10q16 0 29 8t21.5 20t13 26
t4.5 26q0 24 -7 48.5t-20.5 45t-34 33t-46.5 12.5h-17q-14 0 -14 13t15 13h16q31 0 56.5 -15t43 -39.5t27 -57t9.5 -67.5zM213 -14q1 -4 2 -10t-1 -11.5t-7 -9.5t-16 -4q-20 0 -22.5 12.5t0.5 21.5q1 3 4.5 10.5t7.5 15.5l10 19l10 -19q4 -8 7 -15t5 -10z" />
    <glyph glyph-name="HIN_HALF_JHA_RA" horiz-adv-x="395" 
d="M308 118q19 0 29 -18.5t5.5 -40.5t-26 -40.5t-63.5 -18.5q-26 0 -43 8.5t-27 19.5t-18 29q-5 -19 -14 -29q-8 -11 -24 -19.5t-42 -8.5q-16 0 -31 4.5t-27 13.5t-19.5 23t-7.5 33t5.5 32t12.5 21q7 10 18 15q8 8 27.5 11.5t40 10t36 18.5t15.5 36q0 13 -6 22t-14 15t-18 9
t-17 3q-9 0 -19.5 -5t-17.5 -12.5t-9 -16.5t7 -18q7 -7 5.5 -16t-8 -15t-16.5 -7t-20 9q-11 12 -12.5 30t8.5 35.5t31 30t55 12.5q29 0 51.5 -18.5t22.5 -44.5q0 -5 6 -13t16 -15t22.5 -12t24.5 -5q29 0 44.5 12.5t16.5 28t-12 28t-41 12.5q-5 0 -8 4t-3 9.5t4.5 9.5t15.5 4
q36 0 54 -23.5t17 -52t-21 -52t-59 -23.5q-18 0 -31.5 6t-23.5 14t-16 16t-9 13q-6 -21 -21.5 -31.5t-34.5 -17.5t-37 -12.5t-29 -16.5q-8 -8 -10.5 -19.5t1.5 -21.5t13.5 -17t24.5 -7q23 0 37 8t22 18q9 9 14 26q0 2 3 5.5t7 3.5q5 0 7 -3.5t2 -5.5q4 -14 16 -26
q9 -10 23.5 -18t37.5 -8q25 0 38.5 6t18 12.5t3 12.5t-5.5 6q-8 0 -11.5 5t-3 11t5 11t12.5 5z" />
    <glyph glyph-name="HIN_HALF_NYA_RA" horiz-adv-x="725" 
d="M663 128q0 -26 -6.5 -49.5t-19.5 -41t-32.5 -27.5t-45.5 -10q-19 0 -33.5 6.5t-25.5 16.5t-19 22.5t-14 25.5q-11 -32 -34.5 -51.5t-60.5 -19.5q-38 0 -59 18t-32 41q-3 4 -7 14q-19 -33 -52 -53t-75 -20q-30 0 -57 11.5t-47 31.5t-31.5 47t-11.5 57t11.5 57t31.5 47
t47 31.5t57 11.5t57 -11.5t47 -31.5t31.5 -46.5t11.5 -57.5q0 -23 -8 -47q8 -17 26.5 -34t59.5 -17q27 0 44.5 14.5t26 36.5t8 47.5t-10.5 47.5t-29.5 36.5t-47.5 14.5q-17 0 -24.5 7.5t-7.5 16.5t7 16.5t19 7.5q29 0 51.5 -16t37.5 -41t22.5 -54t7.5 -55q1 -2 3.5 -14.5
t10.5 -27t24.5 -26t44.5 -11.5q26 0 44 14.5t26.5 36.5t7.5 47.5t-12 47.5t-32 36.5t-52 14.5q-17 0 -25 7.5t-8 16.5t7 16.5t19 7.5q33 0 57 -16t40 -41t24 -54t8 -55zM264 157q0 22 -9.5 42t-25.5 35t-37 24t-43 9q-23 0 -44 -9t-37 -24t-25.5 -35t-9.5 -42
q0 -24 10 -43.5t26.5 -34t37.5 -22.5t42 -8q22 0 43 8.5t37 23t25.5 34t9.5 42.5zM490 -14q1 -4 2 -10t-1 -11.5t-7 -9.5t-16 -4q-20 0 -22.5 12.5t0.5 21.5q1 3 4.5 10.5t7.5 15.5l10 19l10 -19q4 -8 7 -15t5 -10z" />
    <glyph glyph-name="HIN_HALF_NNA_RA" horiz-adv-x="518" 
d="M467 196q0 -7 -6 -11q-4 -2 -6 -2h-157q0 -27 -11 -54t-28 -50q7 -8 13 -17t11 -17q9 -14 16.5 -30t7.5 -29q0 -6 -4 -12t-10.5 -9.5t-14 -3t-13.5 6.5t-7 17.5t-1 24t-2 25.5t-12 23q-26 -26 -58.5 -42t-75.5 -16q-51 0 -79 23.5t-30 52t24.5 52t84.5 23.5q35 0 68 -11
t65 -40q17 16 23.5 38.5t6.5 39.5q0 27 -16 50t-47 23q-16 0 -27 -7t-18 -15q-4 -5 -7.5 -10.5t-5.5 -10.5q0 -2 -2 -5t-6 -3q-5 0 -7.5 3t-2.5 5q-3 14 -10 23q-6 9 -16 16.5t-26 7.5q-12 0 -20.5 -7t-12.5 -16t-3.5 -18.5t5.5 -14.5q3 -4 0.5 -8t-6.5 -8q-3 -3 -8.5 -2
t-9.5 4q-8 8 -12 26t1 36.5t20 32.5t44 14q16 0 28 -7.5t20 -16.5q8 -10 15 -23l8 12t9 11q8 9 20.5 16.5t28.5 7.5q40 0 61 -23t27 -63h76l-15 59q0 6 3 11q2 4 7 7.5t13 3.5q15 0 20 -12q3 -5 3 -12l-17 -57h69q2 0 6 -2q6 -5 6 -10zM221 82q-26 26 -56 34.5t-56 8.5
q-39 0 -58.5 -12t-19.5 -26t19.5 -26t58.5 -12q13 0 28 1t30 5t29 10t25 17z" />
    <glyph glyph-name="HIN_HALF_TA_RA" horiz-adv-x="449" 
d="M285 0q-21 0 -36.5 10.5t-25.5 23.5q-13 16 -20 35q-5 -10 -10.5 -18.5t-12.5 -16.5q-11 -13 -27.5 -23.5t-37.5 -10.5q-26 0 -47 12t-36 32.5t-23.5 48t-8.5 58.5q0 49 14.5 78t32.5 43q21 18 47 22l-15 60q2 9 4 12q5 12 22 12t22 -12q2 -3 4 -12l-16 -58
q26 -3 43.5 -22.5t17.5 -45.5q0 -28 -20 -47.5t-48 -19.5q-20 0 -32.5 8t-20 18.5t-10.5 21t-3 15.5q-15 -15 -17.5 -44.5t7.5 -58.5t32 -50.5t57 -21.5q20 0 34 10.5t22 23.5q10 15 15 35q0 2 2 4q5 5 9 5q3 0 4.5 -1.5l3.5 -3.5l3 -4q5 -22 14 -35q8 -13 22 -23.5
t35 -10.5q27 0 45 14.5t26 36t6.5 47t-13 47t-33 36t-52.5 14.5q-16 0 -23 8t-7 17t6 17t17 8q37 0 65 -22t45 -54.5t21 -70.5t-5 -70.5t-33.5 -54.5t-64.5 -22zM107 188q21 0 31 12.5t10 27.5t-10 27.5t-31 12.5q-17 0 -31.5 -9t-14.5 -13q0 -18 4 -29t13.5 -20t28.5 -9z
" />
    <glyph glyph-name="HIN_HALF_TA_RA1" horiz-adv-x="344" 
d="M294 147q0 -30 -11.5 -57t-31.5 -47t-46.5 -31.5t-57.5 -11.5q-30 0 -57 11.5t-47 31.5t-31.5 47t-11.5 57t11.5 57t31.5 47t47 31.5t57 11.5t57 -11.5t47 -31.5t31.5 -46.5t11.5 -57.5zM264 157q0 22 -9.5 42t-25.5 35t-37 24t-43 9q-23 0 -44 -9t-37 -24t-25.5 -35
t-9.5 -42q0 -24 10 -43.5t26.5 -34t37.5 -22.5t42 -8q22 0 43 8.5t37 23t25.5 34t9.5 42.5zM148 136q-13 0 -19.5 7.5t-6.5 16t6 16t19 7.5q12 0 18.5 -7.5t6.5 -16t-6 -16t-18 -7.5z" />
    <glyph glyph-name="HIN_HALF_THA_RA" horiz-adv-x="390" 
d="M350 88q0 -34 -23.5 -61t-65.5 -27q-20 0 -36 10t-27 23q-13 14 -22 34q-11 -20 -22 -34q-11 -13 -26 -23t-34 -10q-21 0 -38 9t-29.5 24t-19.5 34.5t-7 40.5q0 34 13.5 67.5t37 59.5t54 42t65.5 16q25 0 57.5 -7t51.5 -26q6 -6 6 -12.5t-3.5 -12t-9 -8.5t-10.5 -3
q-3 0 -11 7t-19.5 15t-26.5 15t-34 7q-29 0 -54.5 -12t-44.5 -31.5t-30 -44.5t-11 -51q0 -31 18.5 -55.5t50.5 -24.5q25 0 38.5 12t19.5 27q7 15 7 39q0 2 2 4q4 4 9 4t9 -4q2 -2 2 -4q1 -11 3.5 -21t6.5 -18q7 -15 20.5 -27t39.5 -12q8 0 18.5 2.5t20 8t16 15t6.5 23.5
q0 16 -7 26.5t-25 10.5q-11 0 -15.5 -4t-7.5 -9.5t-6 -9.5t-10 -4q-18 0 -18 17q0 15 16 25.5t30 10.5q40 0 57.5 -21t17.5 -52z" />
    <glyph glyph-name="HIN_HALF_DHA_RA" horiz-adv-x="390" 
d="M350 88q0 -34 -23.5 -61t-65.5 -27q-20 0 -36 10t-27 23q-13 14 -22 34q-11 -20 -22 -34q-11 -13 -26 -23t-34 -10q-21 0 -38 9t-29.5 24t-19.5 34.5t-7 40.5q0 34 13.5 67.5t37 59.5t54 42t65.5 16q25 0 57.5 -7t51.5 -26q6 -6 6 -12.5t-3.5 -12t-9 -8.5t-10.5 -3
q-3 0 -11 7t-19.5 15t-26.5 15t-34 7q-29 0 -54.5 -12t-44.5 -31.5t-30 -44.5t-11 -51q0 -31 18.5 -55.5t50.5 -24.5q25 0 38.5 12t19.5 27q7 15 7 39q0 2 2 4q4 4 9 4t9 -4q2 -2 2 -4q1 -11 3.5 -21t6.5 -18q7 -15 20.5 -27t39.5 -12q8 0 18.5 2.5t20 8t16 15t6.5 23.5
q0 16 -7 26.5t-25 10.5q-11 0 -15.5 -4t-7.5 -9.5t-6 -9.5t-10 -4q-18 0 -18 17q0 15 16 25.5t30 10.5q40 0 57.5 -21t17.5 -52zM198 -14q1 -4 2 -10t-1 -11.5t-7 -9.5t-16 -4q-20 0 -22.5 12.5t0.5 21.5q1 3 4.5 10.5t7.5 15.5l10 19l10 -19q4 -8 7 -15t5 -10z" />
    <glyph glyph-name="HIN_HALF_NA_RA" horiz-adv-x="449" 
d="M372 243q14 -22 21.5 -51t6.5 -58.5t-11.5 -57t-32.5 -46.5q-20 -18 -47 -25t-51.5 -1.5t-41.5 24.5t-17 53q0 33 21 56t51 23q29 0 43.5 -15t19.5 -32q6 -20 3 -46q7 0 16 14t14 35t5.5 45t-8.5 45t-29.5 35t-56.5 14q-21 0 -36 -11t-24 -24q-12 -17 -17 -34l-3 -4
q-4 -4 -8 -4q-5 0 -9 4q-2 2 -2 4q-4 10 -9 18l-10 16q-10 13 -24.5 24t-35.5 11q-8 0 -18.5 -3t-20.5 -9.5t-16.5 -16t-6.5 -21.5q0 -9 3 -17.5t11 -15t22.5 -11t37.5 -4.5l4 -3l3.5 -3.5t1.5 -4.5q0 -4 -1.5 -5.5l-3.5 -3.5t-4 -2q-10 0 -23 -1.5t-25 -6t-20.5 -13.5
t-8.5 -24q0 -11 5.5 -19t13.5 -13t17 -7t17 -2q22 0 30 6.5t11 15t5 15t12 6.5q11 0 16 -9.5t5 -17.5q0 -17 -8 -29t-20 -20t-26.5 -12t-27.5 -4q-15 0 -30 5.5t-27 16t-20 24.5t-8 31q0 19 7 32.5t16 21.5q10 10 24 16q-12 6 -21 15q-8 8 -14 20t-6 30q0 19 8.5 34t22 25.5
t31 16.5t36.5 6q26 0 42.5 -9.5t26.5 -20.5q5 -7 9.5 -14t7.5 -15q7 15 21 29q11 11 28.5 20.5t43.5 9.5q29 0 51.5 -14t37.5 -37zM315 90q0 23 -14 34t-30.5 11t-30.5 -11t-14 -31q0 -17 14.5 -30.5t40.5 -13.5q27 0 30.5 8.5t3.5 32.5z" />
    <glyph glyph-name="HIN_HALF_PA_RA" horiz-adv-x="410" 
d="M358 138q0 -34 -16 -60t-41 -43.5t-55.5 -26.5t-60.5 -9q-32 0 -65 8t-59.5 25.5t-43.5 44t-17 63.5q0 18 6 36t17.5 32.5t27 23t35.5 8.5q25 0 43 -16.5t18 -42.5q0 -25 -20 -42.5t-44 -17.5q-13 0 -25 5.5t-23 13.5q0 -14 7 -29.5t24.5 -28t45.5 -21t70 -8.5
q38 0 65.5 8t45 20.5t25.5 28.5t8 33q-10 -10 -24 -17t-28 -7q-24 0 -43.5 19t-19.5 44t18.5 41t44.5 16q-10 12 -21.5 18t-21.5 8.5t-18 2.5h-12q-6 0 -12.5 3t-6.5 8q0 8 5.5 11.5t9.5 3.5q7 0 18.5 -0.5t26.5 -5.5t33 -16t39 -32q4 -4 11 -13t14.5 -22t13 -30t5.5 -37z
M321 182q0 3 -4 8.5t-10 11t-14 9t-17 3.5q-14 0 -23 -9.5t-9 -22.5q0 -15 11 -23.5t23 -8.5q7 0 14.5 4t14 9t10.5 10.5t4 8.5zM117 182q0 13 -9 22.5t-23 9.5q-9 0 -17 -3.5t-14 -9t-10 -11t-4 -8.5t4 -8.5t10.5 -10.5t14 -9t14.5 -4q13 0 23.5 8.5t10.5 23.5z" />
    <glyph glyph-name="HIN_HALF_PHA_RA" horiz-adv-x="395" 
d="M354 117q0 -18 -5 -38.5t-16.5 -38t-28.5 -29t-41 -11.5q-21 0 -36.5 11.5t-25.5 25.5q-13 18 -20 37q-4 -11 -9 -20t-10 -17q-10 -14 -26 -25.5t-39 -11.5q-24 0 -42 11.5t-30.5 28.5t-18.5 38t-6 39q0 34 15 66t39.5 56.5t56.5 39.5t67 15q34 0 66 -15t56.5 -39.5
t39 -56.5t14.5 -66zM318 131q0 26 -12 50.5t-32 44t-45 31t-51 11.5t-51 -11.5t-44.5 -31t-31.5 -44t-12 -50.5q0 -32 16 -57t48 -25q16 0 28 12t21 27q10 16 18 39q0 2 2 4q4 4 9 4q4 0 8 -4l3 -4q4 -11 8 -21t9 -18q8 -15 20 -27t28 -12q32 0 46.5 25t14.5 57zM204 -14
q1 -4 2 -10t-1 -11.5t-7 -9.5t-16 -4q-20 0 -22.5 12.5t0.5 21.5q1 3 4.5 10.5t7.5 15.5l10 19l10 -19q4 -8 7 -15t5 -10zM182 172q-12 0 -18.5 7.5t-6.5 16.5t6.5 16.5t18.5 7.5t18.5 -7.5t6.5 -16.5t-6.5 -16.5t-18.5 -7.5z" />
    <glyph glyph-name="HIN_HALF_BA_RA" horiz-adv-x="395" 
d="M354 117q0 -18 -5 -38.5t-16.5 -38t-28.5 -29t-41 -11.5q-21 0 -36.5 11.5t-25.5 25.5q-13 18 -20 37q-4 -11 -9 -20t-10 -17q-10 -14 -26 -25.5t-39 -11.5q-24 0 -42 11.5t-30.5 28.5t-18.5 38t-6 39q0 34 15 66t39.5 56.5t56.5 39.5t67 15q34 0 66 -15t56.5 -39.5
t39 -56.5t14.5 -66zM318 131q0 26 -12 50.5t-32 44t-45 31t-51 11.5t-51 -11.5t-44.5 -31t-31.5 -44t-12 -50.5q0 -32 16 -57t48 -25q16 0 28 12t21 27q10 16 18 39q0 2 2 4q4 4 9 4q4 0 8 -4l3 -4q4 -11 8 -21t9 -18q8 -15 20 -27t28 -12q32 0 46.5 25t14.5 57z" />
    <glyph glyph-name="HIN_HALF_BHA_RA" horiz-adv-x="395" 
d="M354 117q0 -18 -5 -38.5t-16.5 -38t-28.5 -29t-41 -11.5q-21 0 -36.5 11.5t-25.5 25.5q-13 18 -20 37q-4 -11 -9 -20t-10 -17q-10 -14 -26 -25.5t-39 -11.5q-24 0 -42 11.5t-30.5 28.5t-18.5 38t-6 39q0 34 15 66t39.5 56.5t56.5 39.5t67 15q34 0 66 -15t56.5 -39.5
t39 -56.5t14.5 -66zM318 131q0 26 -12 50.5t-32 44t-45 31t-51 11.5t-51 -11.5t-44.5 -31t-31.5 -44t-12 -50.5q0 -32 16 -57t48 -25q16 0 28 12t21 27q10 16 18 39q0 2 2 4q4 4 9 4q4 0 8 -4l3 -4q4 -11 8 -21t9 -18q8 -15 20 -27t28 -12q32 0 46.5 25t14.5 57zM204 -14
q1 -4 2 -10t-1 -11.5t-7 -9.5t-16 -4q-20 0 -22.5 12.5t0.5 21.5q1 3 4.5 10.5t7.5 15.5l10 19l10 -19q4 -8 7 -15t5 -10z" />
    <glyph glyph-name="HIN_HALF_MA_RA" horiz-adv-x="387" 
d="M179 294q42 0 74 -22t52 -54.5t27 -70.5t0 -70.5t-30 -54.5t-63 -22q-25 0 -42 11t-28.5 28t-20.5 36.5t-18.5 36.5t-22 28t-30.5 11q-19 0 -31.5 -15t-12.5 -32q0 -16 7 -27t15.5 -20t15.5 -17t7 -17q0 -11 -8 -17t-19 -6q-13 0 -22.5 10.5t-16 24.5t-9.5 29.5t-3 25.5
q0 33 20 59t55 26q22 0 36.5 -9.5t26 -23.5t21 -30t20 -30t25 -23.5t35.5 -9.5q29 0 45 16t20.5 40.5t-1.5 52.5t-22 52.5t-41 40.5t-58 16h-65l2 27h60z" />
    <glyph glyph-name="HIN_HALF_YA_RA" horiz-adv-x="88" 
d="M91 745h-62l32 44h63z" />
    <glyph glyph-name="HIN_HALF_YA_RA1" horiz-adv-x="393" 
d="M250 0q-23 0 -38 10t-25 23q-11 13 -18 33q-9 -25 -31 -45.5t-50 -20.5q-37 0 -62.5 25.5t-25.5 62.5q0 36 25.5 61.5t62.5 25.5q32 0 54 -17.5t32 -42.5q3 -8 8.5 -19t14.5 -21.5t22 -18t31 -7.5q27 0 45 14.5t26 36t6.5 47t-12.5 47t-32 36t-51 14.5q-16 0 -23 8t-7 17
t6 17t17 8q36 0 63.5 -22t44 -54.5t20.5 -70.5t-5 -70.5t-33.5 -54.5t-64.5 -22zM144 100q0 21 -16.5 36t-39.5 15q-24 0 -40 -15t-16 -36t16 -36t40 -15q23 0 39.5 15t16.5 36z" />
    <glyph glyph-name="HIN_HALF_LA_RA" horiz-adv-x="393" 
d="M250 0q-23 0 -38 10t-25 23q-11 13 -18 33q-9 -25 -31 -45.5t-50 -20.5q-37 0 -62.5 25.5t-25.5 62.5q0 36 25.5 61.5t62.5 25.5q32 0 54 -17.5t32 -42.5q3 -8 8.5 -19t14.5 -21.5t22 -18t31 -7.5q27 0 45 14.5t26 36t6.5 47t-12.5 47t-32 36t-51 14.5q-16 0 -23 8t-7 17
t6 17t17 8q36 0 63.5 -22t44 -54.5t20.5 -70.5t-5 -70.5t-33.5 -54.5t-64.5 -22zM144 100q0 21 -16.5 36t-39.5 15q-24 0 -40 -15t-16 -36t16 -36t40 -15q23 0 39.5 15t16.5 36zM190 -14q1 -4 2 -10t-1 -11.5t-7 -9.5t-16 -4q-20 0 -22.5 12.5t0.5 21.5q1 3 4.5 10.5
t7.5 15.5l10 19l10 -19q4 -8 7 -15t5 -10z" />
    <glyph glyph-name="HIN_HALF_VA_RA" horiz-adv-x="432" 
d="M268 0q-21 0 -37 10t-27 22q-11 13 -21 32q-5 -9 -10.5 -17t-11.5 -15q-11 -12 -26.5 -22t-36.5 -10q-34 0 -56 13t-32.5 32.5t-9.5 42t11.5 42t30.5 32.5t49 13q31 0 45 14.5t14 31.5t-12 31.5t-33 14.5t-36 -12t-15 -33q0 -12 -8.5 -18t-18 -5.5t-18 7.5t-8.5 19
q0 16 8.5 28.5t21.5 21.5t29 14t31 5q42 0 64.5 -22.5t24 -49t-20 -49t-68.5 -22.5q-29 0 -43.5 -16t-14 -35t16.5 -35t48 -16q21 0 35 10t23 22q10 12 16 33q0 2 2 4q4 4 9 4q4 0 8 -4l3 -4q4 -18 16 -33q8 -12 22.5 -22t35.5 -10q27 0 44.5 14.5t26 36t7.5 47t-12 47
t-32 36t-52 14.5q-16 0 -23 8t-7 17t6 17t17 8q37 0 64.5 -22t43.5 -54.5t19.5 -70.5t-6 -70.5t-33.5 -54.5t-63 -22z" />
    <glyph glyph-name="HIN_TTA_VA" horiz-adv-x="405" 
d="M267 0q-21 0 -36.5 10t-26.5 22q-11 13 -21 32q-5 -9 -10.5 -17t-11.5 -15q-11 -12 -26.5 -22t-36.5 -10q-34 0 -56 13t-32.5 32.5t-9.5 42t11.5 42t30.5 32.5t49 13q31 0 45 14.5t14 31.5t-12 31.5t-33 14.5t-36 -12t-15 -33q0 -12 -8.5 -18t-18 -5.5t-18 7.5t-8.5 19
q0 16 8.5 28.5t21.5 21.5t29 14t31 5q42 0 64.5 -22.5t24 -49t-20 -49t-68.5 -22.5q-29 0 -43.5 -16t-14 -35t16.5 -35t48 -16q21 0 35 10t23 22q10 12 16 33q0 2 2 4q4 4 9 4q4 0 8 -4l3 -4q6 -21 16 -33q8 -12 22 -22t35 -10q31 0 49.5 16t25.5 40.5t3.5 52.5t-16 52.5
t-33.5 40.5t-49 16q-15 0 -22 4t-7 9.5t6.5 9.5t18.5 4q37 0 64.5 -22t43.5 -54.5t19.5 -70.5t-6 -70.5t-33.5 -54.5t-64 -22zM204 -14q1 -4 2 -10t-1 -11.5t-7 -9.5t-16 -4q-20 0 -22.5 12.5t0.5 21.5q1 3 4.5 10.5t7.5 15.5l10 19l10 -19q4 -8 7 -15t5 -10z" />
    <glyph glyph-name="HIN_HALF_SHHA_RA" horiz-adv-x="617" 
d="M557 128q0 -26 -6.5 -49.5t-19.5 -41t-33 -27.5t-46 -10q-38 0 -59 18.5t-32 41.5q-5 11 -8 20q-11 -34 -37.5 -57t-65.5 -23q-23 0 -38 10t-25 22q-11 13 -18 33q-8 -18 -20 -33q-10 -12 -25.5 -22t-35.5 -10q-36 0 -62 25.5t-26 62.5q0 36 25.5 61.5t62.5 25.5
q32 0 54.5 -18t31.5 -43q3 -7 8.5 -18t14.5 -21.5t22 -18t31 -7.5q16 0 31 7t26 18t17.5 24.5t6.5 26.5q0 31 -10.5 57.5t-29.5 46t-45 30.5t-57 11h-67l3 23l67 1q34 0 64.5 -13.5t53.5 -36.5t36.5 -54t13.5 -65q0 -8 -1 -12q4 -9 11 -20t18 -20.5t27 -16.5t37 -7
q26 0 44 14.5t26.5 36.5t7.5 47.5t-12 47.5t-32 36.5t-52 14.5q-17 0 -25 7.5t-8 16.5t7 16.5t19 7.5q33 0 57 -16t40.5 -41t24.5 -54t8 -55zM144 100q0 21 -16 36t-39 15t-40 -15t-17 -36t17 -36t40 -15t39 15t16 36z" />
    <glyph glyph-name="HIN_HALF_SA_RA" horiz-adv-x="737" 
d="M677 128q0 -26 -6.5 -49.5t-19.5 -41t-33 -27.5t-46 -10q-38 0 -59 18.5t-32 41.5l-3 5q-12 -29 -36 -47t-59 -18q-20 0 -36 7.5t-28.5 20t-21.5 28t-15 31.5q-26 -48 -60.5 -67.5t-74.5 -19.5q-30 0 -57 11.5t-47 31.5t-31.5 47t-11.5 57t11.5 57t31.5 47t47 31.5
t57 11.5q36 0 63.5 -13.5t46 -35t28 -47.5t9.5 -50q0 -4 -1 -18t-1 -18q3 -9 9.5 -20t17 -20.5t26.5 -16t38 -6.5q18 0 32.5 9t25 24t16 34.5t5.5 39.5q0 15 -6.5 34.5t-21.5 36.5t-38 29t-56 12h-10q-6 0 -8.5 4t-2.5 9t3.5 9t9.5 4h11q36 0 63.5 -14t46 -37.5t28.5 -53.5
t10 -61q0 -16 -3 -31q11 -17 30.5 -32.5t53.5 -15.5q26 0 44 14.5t26.5 36.5t7.5 47.5t-12 47.5t-32 36.5t-52 14.5q-17 0 -25 7.5t-8 16.5t7 16.5t19 7.5q33 0 57 -16t40.5 -41t24.5 -54t8 -55zM264 157q0 22 -9.5 42t-25.5 35t-37 24t-43 9q-23 0 -44 -9t-37 -24
t-25.5 -35t-9.5 -42q0 -24 10 -43.5t26.5 -34t37.5 -22.5t42 -8q22 0 43 8.5t37 23t25.5 34t9.5 42.5z" />
    <glyph glyph-name="HIN_HALF_SHA_RA" horiz-adv-x="344" 
d="M294 147q0 -30 -11.5 -57t-31.5 -47t-46.5 -31.5t-57.5 -11.5q-30 0 -57 11.5t-47 31.5t-31.5 47t-11.5 57t11.5 57t31.5 47t47 31.5t57 11.5t57 -11.5t47 -31.5t31.5 -46.5t11.5 -57.5zM264 157q0 22 -9.5 42t-25.5 35t-37 24t-43 9q-23 0 -44 -9t-37 -24t-25.5 -35
t-9.5 -42q0 -24 10 -43.5t26.5 -34t37.5 -22.5t42 -8q22 0 43 8.5t37 23t25.5 34t9.5 42.5z" />
    <glyph glyph-name="HIN_SHA_R" horiz-adv-x="438" 
d="M305 151q0 -11 -7 -12q-5 -2 -7 -1h-122q-2 0 -6 2q-5 3 -5 10t5 10q4 2 6 2h95q-11 8 -21 20q-8 10 -14 23t-6 30q0 25 15.5 42t40.5 17q32 0 54 -22t33.5 -54.5t12 -70.5t-11 -70.5t-36 -54.5t-62.5 -22q-19 0 -33.5 7.5t-25.5 16.5q-6 5 -11 11.5t-10 13.5
q-5 -7 -10.5 -13.5t-11.5 -11.5q-11 -9 -25.5 -16.5t-33.5 -7.5q-38 0 -62 22t-35.5 54.5t-10.5 70.5t12 70.5t32 54.5t50 22q24 0 43.5 -18.5t19.5 -43.5q0 -26 -18.5 -41.5t-44.5 -15.5q-18 0 -31.5 8t-27.5 22q-1 0 -4 -11.5t-4.5 -29t1 -37.5t11 -37.5t25 -29
t44.5 -11.5q20 0 33.5 8t21.5 19q10 10 15 27q0 2 2 4q4 4 9 4q4 0 8 -4l3 -4q4 -17 15 -27q8 -11 21 -19t33 -8q29 0 47.5 15.5t28 38t9.5 49.5t-7.5 49.5t-23 38t-37.5 15.5q-11 0 -19 -11.5t-8 -22.5q0 -16 7 -25.5t16 -16.5t16 -13t7 -15zM130 231q0 12 -11 24t-25 12
q-12 0 -21 -5t-15.5 -12t-10 -14.5t-3.5 -11.5q6 -8 14 -14q7 -5 16 -9t20 -4q14 0 25 8t11 26z" />
    <glyph glyph-name="HIN_HALF_HA_RA" horiz-adv-x="401" 
d="M260 239q-16 0 -23 8t-7 17t6 17t17 8q33 0 56 -21.5t33 -53.5t6 -69.5t-24 -69.5t-57.5 -53.5t-94.5 -21.5q-36 0 -67.5 11.5t-55 32.5t-36.5 51t-13 66q0 23 8.5 46.5t23 43t34 31.5t42.5 12q32 0 50 -20t18 -46q0 -28 -20 -47.5t-48 -19.5q-20 0 -32.5 7.5t-19.5 17.5
t-10 20t-3 15q-7 -7 -11 -22.5t-2 -34.5t10 -39.5t24.5 -37t43 -27.5t64.5 -11q46 0 77 14t48.5 35t22 46t-1 46t-21 35t-37.5 14zM108 188q20 0 30 12t10 26t-10 26t-30 12q-16 0 -29.5 -8.5t-13.5 -12.5q0 -17 4 -28t12.5 -19t26.5 -8z" />
    <glyph glyph-name="HIN_KA_KA" horiz-adv-x="297" 
d="M246 220q0 -22 -8.5 -37t-22 -25.5t-31 -17.5t-34.5 -12q21 -10 35.5 -24.5t14.5 -39.5q0 -18 -8.5 -30.5t-21 -20t-26.5 -10.5t-26 -3q-14 0 -28 3.5t-25.5 11t-19 19.5t-7.5 30q0 23 11.5 37t29.5 24q-15 4 -29 8.5t-25 13t-18 21t-7 31.5q0 13 6 25t15.5 21t22 14
t25.5 5q21 0 37 -14.5t16 -35.5q0 -14 -6.5 -24t-17 -16t-23.5 -7.5t-25 0.5q13 -8 30 -14.5t35 -12.5q18 7 36.5 13.5t33.5 14.5t24 19.5t9 28.5q0 29 -18 40.5t-41 11.5h-20q-6 0 -9 4t-3 9t3 9t9 4h26q12 0 26 -4t26.5 -13t20.5 -23t8 -34zM99 214q0 13 -11 19.5t-24.5 5
t-24.5 -11t-11 -27.5v-4q7 -7 19 -9t23.5 0t20 9t8.5 18zM151 77q0 17 -11 25t-28 13q-19 -7 -31 -15.5t-12 -24.5t13 -24.5t28 -8.5t28 8.5t13 26.5z" />
    <glyph glyph-name="HIN_KA_CHA" horiz-adv-x="518" 
 />
    <glyph glyph-name="HIN_KA_TA" horiz-adv-x="411" 
d="M360 125q0 -24 -7.5 -47t-21.5 -40t-34.5 -27.5t-46.5 -10.5q-23 0 -38 10t-25 22q-11 13 -18 33q-8 -18 -20 -33q-10 -12 -25.5 -22t-35.5 -10q-36 0 -62 25.5t-26 62.5q0 36 25.5 61.5t62.5 25.5q32 0 54.5 -18t31.5 -43q3 -7 8.5 -18t14.5 -21.5t22 -18t31 -7.5
q16 0 31 7t26 18t17.5 24.5t6.5 26.5q0 31 -10.5 57.5t-29.5 46t-45 30.5t-57 11h-67l3 23l67 1q34 0 64.5 -13.5t53.5 -36.5t36.5 -54t13.5 -65zM144 100q0 21 -16 36t-39 15t-40 -15t-17 -36t17 -36t40 -15t39 15t16 36z" />
    <glyph glyph-name="HIN_KA_NA" horiz-adv-x="289" 
d="M242 224q0 -20 -10 -34t-24 -26q30 -36 30 -74t-21.5 -64t-59.5 -26q-32 0 -49.5 19t-17.5 50q0 18 7 32.5t18.5 26t25 21t26.5 18.5q-13 11 -28.5 18t-30.5 7q-33 0 -43.5 -12.5t-10.5 -28.5q0 -20 -8.5 -28.5t-18.5 -8.5t-18.5 7t-8.5 18q0 21 10 36t25 25.5t33 15.5
t33 5q23 0 46 -10.5t42 -27.5q11 9 18 19t7 22q0 14 -12 29t-27 15h-40l-9 26h49q12 0 24 -6.5t21.5 -16.5t15.5 -22.5t6 -24.5zM203 105q0 23 -17 43q-20 -15 -37.5 -30t-17.5 -36q0 -18 11 -24t24.5 -2.5t25 16t11.5 33.5z" />
    <glyph glyph-name="HIN_KA_LA" horiz-adv-x="412" 
d="M404 -27q11 -11 6 -26t-25 -15q-16 0 -29 9t-21.5 23t-11.5 32t1 35q-13 -14 -31.5 -22.5t-42.5 -8.5q-23 0 -38 8.5t-25 19.5q-11 13 -18 28q-5 -8 -10 -15t-10 -13q-10 -11 -25.5 -19.5t-35.5 -8.5q-37 0 -62.5 25.5t-25.5 62.5q0 36 25.5 61.5t62.5 25.5q32 0 55 -20
t29 -50q3 -7 9 -16.5t15 -18.5t22.5 -15t31.5 -6q27 0 45 14.5t26 36t6.5 47t-12.5 47t-32 36t-51 14.5q-16 0 -23 8t-7 17t6 17t17 8q38 0 66 -23.5t43.5 -58.5t18.5 -74.5t-9 -72.5q0 -37 7 -53.5t17 -23t20 -8t16 -7.5zM144 100q0 21 -16.5 36t-39.5 15q-24 0 -40 -15
t-16 -36t16 -36t40 -15q23 0 39.5 15t16.5 36z" />
    <glyph glyph-name="HIN_KA_VA" horiz-adv-x="385" 
d="M239 0q-25 0 -42 11t-28.5 28t-20.5 36.5t-18.5 36.5t-22 28t-30.5 11q-19 0 -31.5 -15t-12.5 -32q0 -16 7 -27t15.5 -20t15.5 -17t7 -17q0 -11 -8 -17t-19 -6q-13 0 -22.5 10.5t-16 24.5t-9.5 29.5t-3 25.5q0 33 20 59t55 26q22 0 36.5 -9.5t26 -23.5t21 -30t20 -30
t25 -23.5t35.5 -9.5q24 0 39.5 14.5t22.5 36t5.5 47t-10.5 47t-26 36t-41 14.5q-15 0 -22 8t-7 17t6 17t16 8q35 0 59.5 -22t38 -54.5t15.5 -70.5t-7.5 -70.5t-31.5 -54.5t-57 -22z" />
    <glyph glyph-name="HIN_KHA_NA" horiz-adv-x="605" 
d="M550 206q0 -16 -7 -30.5t-18.5 -26t-26.5 -18t-31 -6.5t-30 7t-25 18t-17.5 26t-6.5 30q0 13 3.5 23.5t14.5 21.5h-95q25 -31 36 -74t5 -82.5t-31 -67t-71 -27.5q-23 0 -38 8.5t-25 19.5q-11 13 -18 28q-9 -25 -31 -40.5t-50 -15.5q-37 0 -62.5 25.5t-25.5 62.5
q0 36 25.5 61.5t62.5 25.5q32 0 55.5 -20t30.5 -50q3 -7 8.5 -16.5t14.5 -18.5t22 -15t31 -6q27 0 45 14.5t26 36t6.5 47t-12.5 47t-32 36t-51 14.5q-22 0 -27.5 13.5t0.5 24.5q3 12 18 12h2h242q38 0 60.5 -26.5t22.5 -61.5zM144 100q0 21 -16.5 36t-39.5 15q-24 0 -40 -15
t-16 -36t16 -36t40 -15q23 0 39.5 15t16.5 36zM524 213q0 23 -16.5 37.5t-38.5 14.5t-38.5 -15t-16.5 -35q0 -22 17.5 -34.5t39.5 -12.5q19 0 36 11.5t17 33.5z" />
    <glyph glyph-name="HIN_NGA_KA" 
d="M-249 426v529h551v-529h-551zM22 776q-4 -5 -6.5 -8.5t-6.5 -9.5h28l8 11l4 7h-27z" />
    <glyph glyph-name="HIN_NGA_KA_TA" horiz-adv-x="302" 
d="M259 315q0 -29 -10 -53.5t-27.5 -42.5t-41.5 -28t-51 -10q-26 0 -49.5 8t-40.5 23.5t-27 37t-10 48.5q0 17 6 34t14 31h-564v74h293v518h550v-529h-125q38 -13 60.5 -41t22.5 -70zM217 319q0 44 -31 44h-101q-12 -8 -20 -20.5t-8 -27.5q0 -40 78 -40q32 0 57 12.5
t25 31.5z" />
    <glyph glyph-name="HIN_NGA_KHA" horiz-adv-x="302" 
d="M259 315q0 -29 -10 -53.5t-27 -42.5t-40.5 -28t-51.5 -10q-27 0 -50 8t-40 23.5t-27 37t-10 48.5q0 36 20 65h-469v74h197v518h550v-529h-125q38 -13 60.5 -41t22.5 -70zM218 319q0 44 -32 44h-101q-12 -8 -20 -20.5t-8 -27.5q0 -40 79 -40q31 0 56.5 12.5t25.5 31.5z
" />
    <glyph glyph-name="HIN_NGA_GA" horiz-adv-x="302" 
d="M-249 426v529h551v-529h-551zM273 291q0 -32 -10.5 -57t-28.5 -42t-42 -26t-51 -9q-26 0 -49 8.5t-40.5 24t-27.5 37t-10 47.5q0 34 21 63h-289v75h370q73 0 115 -32.5t42 -88.5zM230 294q0 43 -32 43h-100q-12 -8 -20 -19.5t-8 -26.5q0 -39 77 -39q33 0 58 12t25 30z
" />
    <glyph glyph-name="HIN_NGA_GHA" horiz-adv-x="302" 
d="M-231 411q-19 14 -29 32t-10 41q0 15 6 29t15 27v415h550v-529h-363q-9 -8 -18 -8t-14.5 1.5t-7.5 6.5h-70l7 -3l-1 -12h-65zM-61 486q0 34 -27 54t-66 20q-47 0 -81 -23v-98h16q-2 5 -3 10.5t-1 9.5q0 60 66 60q29 0 51 -16t22 -41q0 -6 -2 -14q0 -1 -0.5 -2t-0.5 -3
q0 -1 -0.5 -1.5t-0.5 -2.5h18q6 10 7.5 21t1.5 26z" />
    <glyph glyph-name="HIN_HALF_CHA_CHA" 
d="M45 745h-62l32 44h62z" />
    <glyph glyph-name="HIN_CHA_CHA" horiz-adv-x="12" 
d="M-92 -58q0 -19 -13.5 -33t-32.5 -14h-176q-7 0 -14.5 2.5t-7.5 10.5t5 11t11 3l138 -1l3 2q-3 9 -3 17q0 20 12.5 33t31.5 13q20 0 33 -12.5t13 -31.5zM-13 -21q0 -40 -18.5 -73t-48 -56t-66.5 -36t-74 -13t-73 13t-64.5 36.5t-46 56.5t-17.5 72q0 8 1 15t9 10l9 -7
q4 -36 20 -65t41 -49t56.5 -30.5t67.5 -10.5q26 0 52 6.5t49 19t41 31.5t29 44q5 13 7.5 26.5t6.5 27.5l8 6q8 -2 9.5 -9.5t1.5 -14.5zM-113 -58q0 9 -7 16t-16 7q-10 0 -17 -7t-7 -16q0 -25 24 -25q10 0 16.5 7.5t6.5 17.5z" />
    <glyph glyph-name="HIN_CHA_NA" horiz-adv-x="12" 
d="M-92 -58q0 -19 -13.5 -33t-32.5 -14h-176q-7 0 -14.5 2.5t-7.5 10.5t5 11t11 3l138 -1l3 2q-3 9 -3 17q0 20 12.5 33t31.5 13q20 0 33 -12.5t13 -31.5zM-13 -21q0 -40 -18.5 -73t-48 -56t-66.5 -36t-74 -13t-73 13t-64.5 36.5t-46 56.5t-17.5 72q0 8 1 15t9 10l9 -7
q4 -36 20 -65t41 -49t56.5 -30.5t67.5 -10.5q26 0 52 6.5t49 19t41 31.5t29 44q5 13 7.5 26.5t6.5 27.5l8 6q8 -2 9.5 -9.5t1.5 -14.5zM-113 -58q0 9 -7 16t-16 7q-10 0 -17 -7t-7 -16q0 -25 24 -25q10 0 16.5 7.5t6.5 17.5z" />
    <glyph glyph-name="HIN_CHA_VA" horiz-adv-x="12" 
d="M-92 -58q0 -19 -13.5 -33t-32.5 -14h-176q-7 0 -14.5 2.5t-7.5 10.5t5 11t11 3l138 -1l3 2q-3 9 -3 17q0 20 12.5 33t31.5 13q20 0 33 -12.5t13 -31.5zM-13 -21q0 -40 -18.5 -73t-48 -56t-66.5 -36t-74 -13t-73 13t-64.5 36.5t-46 56.5t-17.5 72q0 8 1 15t9 10l9 -7
q4 -36 20 -65t41 -49t56.5 -30.5t67.5 -10.5q26 0 52 6.5t49 19t41 31.5t29 44q5 13 7.5 26.5t6.5 27.5l8 6q8 -2 9.5 -9.5t1.5 -14.5zM-113 -58q0 9 -7 16t-16 7q-10 0 -17 -7t-7 -16q0 -25 24 -25q10 0 16.5 7.5t6.5 17.5z" />
    <glyph glyph-name="HIN_CHHA_VA" horiz-adv-x="12" 
d="M-92 -58q0 -19 -13.5 -33t-32.5 -14h-176q-7 0 -14.5 2.5t-7.5 10.5t5 11t11 3l138 -1l3 2q-3 9 -3 17q0 20 12.5 33t31.5 13q20 0 33 -12.5t13 -31.5zM-13 -21q0 -40 -18.5 -73t-48 -56t-66.5 -36t-74 -13t-73 13t-64.5 36.5t-46 56.5t-17.5 72q0 8 1 15t9 10l9 -7
q4 -36 20 -65t41 -49t56.5 -30.5t67.5 -10.5q26 0 52 6.5t49 19t41 31.5t29 44q5 13 7.5 26.5t6.5 27.5l8 6q8 -2 9.5 -9.5t1.5 -14.5zM-113 -58q0 9 -7 16t-16 7q-10 0 -17 -7t-7 -16q0 -25 24 -25q10 0 16.5 7.5t6.5 17.5z" />
    <glyph glyph-name="HIN_JA_JA" horiz-adv-x="0" 
d="M-541 -40q3 -27 16.5 -45t34.5 -29t48.5 -15.5t57.5 -4.5q25 0 56.5 3.5t59.5 14t47.5 30t19.5 50.5q0 7 -2 15.5t-4 14.5q4 2 9.5 1t7.5 -1q2 -5 3 -11t1 -19q0 -46 -17 -76.5t-44.5 -49t-62 -26.5t-68.5 -8q-35 0 -67.5 9t-57.5 28.5t-40 49.5t-15 73v14.5t2 17.5
l18 -6q-4 -17 -3 -30z" />
    <glyph glyph-name="HIN_JA_NA" horiz-adv-x="0" 
d="M-579 -47q18 -50 57.5 -68t97.5 -19h35q25 0 52.5 3t52.5 13t44.5 28t27.5 47q2 7 2 13t2 17q4 2 9.5 1t7.5 -1q-1 -6 -1.5 -13t-2.5 -19q-8 -45 -26.5 -74t-44.5 -46.5t-57.5 -24t-65.5 -6.5h-34q-68 2 -112.5 38.5t-63.5 114.5q-2 8 -3.5 16t-1.5 16l18 -6q1 -16 7 -30
z" />
    <glyph glyph-name="HIN_JA_VA" horiz-adv-x="0" 
d="M-769 -40q9 -26 32 -43.5t53 -28.5t62.5 -16t61.5 -6h35q25 0 61 4t71 14.5t63.5 29.5t37.5 50q2 7 3 16t1 14q4 2 9.5 1t7.5 -1q2 -14 -1 -30q-8 -45 -34.5 -75.5t-62.5 -49.5t-76 -27t-74 -8h-34q-34 1 -72 10t-72 28t-59 49t-33 73l-5 32l18 -6q2 -11 3.5 -17t3.5 -13
z" />
    <glyph glyph-name="HIN_NYA_CHA" horiz-adv-x="0" 
d="M-919 -50q11 -27 35.5 -43t56 -25t65 -12t62.5 -4h105q25 0 61.5 2.5t73 11.5t66.5 26.5t42 47.5q2 6 3.5 14.5t0.5 15.5q4 2 9.5 1t7.5 -1q0 -7 -0.5 -13t-3.5 -17q-12 -44 -40 -73t-64.5 -46t-76 -24t-73.5 -7h-104q-34 1 -71.5 8.5t-72 24.5t-61.5 45.5t-40 71.5
q-2 8 -3 14.5t-3 17.5l18 -6q2 -18 7 -30z" />
    <glyph glyph-name="HIN_NYA_JA" horiz-adv-x="0" 
d="M-361 -40q3 -27 16.5 -45t34.5 -29t48.5 -15.5t57.5 -4.5q25 0 56.5 3.5t59.5 14t47.5 30t19.5 50.5q0 7 -2 15.5t-4 14.5q4 2 9.5 1t7.5 -1q2 -5 3 -11t1 -19q0 -46 -17 -76.5t-44.5 -49t-62 -26.5t-68.5 -8q-35 0 -67.5 9t-57.5 28.5t-40 49.5t-15 73v14.5t2 17.5
l18 -6q-4 -17 -3 -30z" />
    <glyph glyph-name="HIN_TTA_TTA" horiz-adv-x="0" 
d="M-419 -47q18 -50 57.5 -68t97.5 -19h35q25 0 52.5 3t52.5 13t44.5 28t27.5 47q2 7 2 13t2 17q4 2 9.5 1t7.5 -1q-1 -6 -1.5 -13t-2.5 -19q-8 -45 -26.5 -74t-44.5 -46.5t-57.5 -24t-65.5 -6.5h-34q-68 2 -112.5 38.5t-63.5 114.5q-2 8 -3.5 16t-1.5 16l18 -6q1 -16 7 -30
z" />
    <glyph glyph-name="HIN_TTA_TTHA" horiz-adv-x="0" 
d="M-599 -40q9 -26 32 -43.5t53 -28.5t62.5 -16t61.5 -6h35q25 0 61 4t71 14.5t63.5 29.5t37.5 50q2 7 3 16t1 14q4 2 9.5 1t7.5 -1q2 -14 -1 -30q-8 -45 -34.5 -75.5t-62.5 -49.5t-76 -27t-74 -8h-34q-34 1 -72 10t-72 28t-59 49t-33 73l-5 32l18 -6q2 -11 3.5 -17t3.5 -13
z" />
    <glyph glyph-name="HIN_DDA_TTA" horiz-adv-x="0" 
d="M-749 -50q11 -27 35.5 -43t56 -25t65 -12t62.5 -4h105q25 0 61.5 2.5t73 11.5t66.5 26.5t42 47.5q2 6 3.5 14.5t0.5 15.5q4 2 9.5 1t7.5 -1q0 -7 -0.5 -13t-3.5 -17q-12 -44 -40 -73t-64.5 -46t-76 -24t-73.5 -7h-104q-34 1 -71.5 8.5t-72 24.5t-61.5 45.5t-40 71.5
q-2 8 -3 14.5t-3 17.5l18 -6q2 -18 7 -30z" />
    <glyph glyph-name="HIN_DDA_DDA" horiz-adv-x="0" 
d="M-749 -50q11 -27 35.5 -43t56 -25t65 -12t62.5 -4h105q25 0 61.5 2.5t73 11.5t66.5 26.5t42 47.5q2 6 3.5 14.5t0.5 15.5q4 2 9.5 1t7.5 -1q0 -7 -0.5 -13t-3.5 -17q-12 -44 -40 -73t-64.5 -46t-76 -24t-73.5 -7h-104q-34 1 -71.5 8.5t-72 24.5t-61.5 45.5t-40 71.5
q-2 8 -3 14.5t-3 17.5l18 -6q2 -18 7 -30z" />
    <glyph glyph-name="HIN_DDA_DDHA" horiz-adv-x="0" 
d="M-551 -40q3 -27 16.5 -45t34.5 -29t48.5 -15.5t57.5 -4.5q25 0 56.5 3.5t59.5 14t47.5 30t19.5 50.5q0 7 -2 15.5t-4 14.5q4 2 9.5 1t7.5 -1q2 -5 3 -11t1 -19q0 -46 -17 -76.5t-44.5 -49t-62 -26.5t-68.5 -8q-35 0 -67.5 9t-57.5 28.5t-40 49.5t-15 73v14.5t2 17.5
l18 -6q-4 -17 -3 -30z" />
    <glyph glyph-name="HIN_DDHA_DDHA" horiz-adv-x="0" 
d="M-629 -47q18 -50 57.5 -68t97.5 -19h35q25 0 52.5 3t52.5 13t44.5 28t27.5 47q2 7 2 13t2 17q4 2 9.5 1t7.5 -1q-1 -6 -1.5 -13t-2.5 -19q-8 -45 -26.5 -74t-44.5 -46.5t-57.5 -24t-65.5 -6.5h-34q-68 2 -112.5 38.5t-63.5 114.5q-2 8 -3.5 16t-1.5 16l18 -6q1 -16 7 -30
z" />
    <glyph glyph-name="HIN_TA_TA" horiz-adv-x="0" 
d="M-819 -40q9 -26 32 -43.5t53 -28.5t62.5 -16t61.5 -6h35q25 0 61 4t71 14.5t63.5 29.5t37.5 50q2 7 3 16t1 14q4 2 9.5 1t7.5 -1q2 -14 -1 -30q-8 -45 -34.5 -75.5t-62.5 -49.5t-76 -27t-74 -8h-34q-34 1 -72 10t-72 28t-59 49t-33 73l-5 32l18 -6q2 -11 3.5 -17t3.5 -13
z" />
    <glyph glyph-name="HIN_HALF_TA_TA" horiz-adv-x="0" 
d="M-969 -50q11 -27 35.5 -43t56 -25t65 -12t62.5 -4h105q25 0 61.5 2.5t73 11.5t66.5 26.5t42 47.5q2 6 3.5 14.5t0.5 15.5q4 2 9.5 1t7.5 -1q0 -7 -0.5 -13t-3.5 -17q-12 -44 -40 -73t-64.5 -46t-76 -24t-73.5 -7h-104q-34 1 -71.5 8.5t-72 24.5t-61.5 45.5t-40 71.5
q-2 8 -3 14.5t-3 17.5l18 -6q2 -18 7 -30z" />
    <glyph glyph-name="HIN_DA_GA" horiz-adv-x="0" 
d="M-731 -40q3 -27 16.5 -45t34.5 -29t48.5 -15.5t57.5 -4.5q25 0 56.5 3.5t59.5 14t47.5 30t19.5 50.5q0 7 -2 15.5t-4 14.5q4 2 9.5 1t7.5 -1q2 -5 3 -11t1 -19q0 -46 -17 -76.5t-44.5 -49t-62 -26.5t-68.5 -8q-35 0 -67.5 9t-57.5 28.5t-40 49.5t-15 73v14.5t2 17.5
l18 -6q-4 -17 -3 -30z" />
    <glyph glyph-name="HIN_DA_GHA" horiz-adv-x="0" 
d="M-809 -47q18 -50 57.5 -68t97.5 -19h35q25 0 52.5 3t52.5 13t44.5 28t27.5 47q2 7 2 13t2 17q4 2 9.5 1t7.5 -1q-1 -6 -1.5 -13t-2.5 -19q-8 -45 -26.5 -74t-44.5 -46.5t-57.5 -24t-65.5 -6.5h-34q-68 2 -112.5 38.5t-63.5 114.5q-2 8 -3.5 16t-1.5 16l18 -6q1 -16 7 -30
z" />
    <glyph glyph-name="HIN_DA_DA" horiz-adv-x="0" 
d="M-989 -40q9 -26 32 -43.5t53 -28.5t62.5 -16t61.5 -6h35q25 0 61 4t71 14.5t63.5 29.5t37.5 50q2 7 3 16t1 14q4 2 9.5 1t7.5 -1q2 -14 -1 -30q-8 -45 -34.5 -75.5t-62.5 -49.5t-76 -27t-74 -8h-34q-34 1 -72 10t-72 28t-59 49t-33 73l-5 32l18 -6q2 -11 3.5 -17t3.5 -13
z" />
    <glyph glyph-name="HIN_DA_DHA" horiz-adv-x="0" 
d="M-1149 -50q11 -27 35.5 -43t56 -25t65 -12t62.5 -4h105q25 0 61.5 2.5t73 11.5t66.5 26.5t42 47.5q2 6 3.5 14.5t0.5 15.5q4 2 9.5 1t7.5 -1q0 -7 -0.5 -13t-3.5 -17q-12 -44 -40 -73t-64.5 -46t-76 -24t-73.5 -7h-104q-34 1 -71.5 8.5t-72 24.5t-61.5 45.5t-40 71.5
q-2 8 -3 14.5t-3 17.5l18 -6q2 -18 7 -30z" />
    <glyph glyph-name="HIN_DA_NA" horiz-adv-x="0" 
d="M-361 -40q3 -27 16.5 -45t34.5 -29t48.5 -15.5t57.5 -4.5q25 0 56.5 3.5t59.5 14t47.5 30t19.5 50.5q0 7 -2 15.5t-4 14.5q4 2 9.5 1t7.5 -1q2 -5 3 -11t1 -19q0 -46 -17 -76.5t-44.5 -49t-62 -26.5t-68.5 -8q-35 0 -67.5 9t-57.5 28.5t-40 49.5t-15 73v14.5t2 17.5
l18 -6q-4 -17 -3 -30z" />
    <glyph glyph-name="HIN_DA_BA" horiz-adv-x="0" 
d="M-429 -47q18 -50 57.5 -68t97.5 -19h35q25 0 52.5 3t52.5 13t44.5 28t27.5 47q2 7 2 13t2 17q4 2 9.5 1t7.5 -1q-1 -6 -1.5 -13t-2.5 -19q-8 -45 -26.5 -74t-44.5 -46.5t-57.5 -24t-65.5 -6.5h-34q-68 2 -112.5 38.5t-63.5 114.5q-2 8 -3.5 16t-1.5 16l18 -6q1 -16 7 -30
z" />
    <glyph glyph-name="HIN_DA_BHA" horiz-adv-x="0" 
d="M-609 -40q9 -26 32 -43.5t53 -28.5t62.5 -16t61.5 -6h35q25 0 61 4t71 14.5t63.5 29.5t37.5 50q2 7 3 16t1 14q4 2 9.5 1t7.5 -1q2 -14 -1 -30q-8 -45 -34.5 -75.5t-62.5 -49.5t-76 -27t-74 -8h-34q-34 1 -72 10t-72 28t-59 49t-33 73l-5 32l18 -6q2 -11 3.5 -17t3.5 -13
z" />
    <glyph glyph-name="HIN_DA_MA" horiz-adv-x="0" 
d="M-759 -50q11 -27 35.5 -43t56 -25t65 -12t62.5 -4h105q25 0 61.5 2.5t73 11.5t66.5 26.5t42 47.5q2 6 3.5 14.5t0.5 15.5q4 2 9.5 1t7.5 -1q0 -7 -0.5 -13t-3.5 -17q-12 -44 -40 -73t-64.5 -46t-76 -24t-73.5 -7h-104q-34 1 -71.5 8.5t-72 24.5t-61.5 45.5t-40 71.5
q-2 8 -3 14.5t-3 17.5l18 -6q2 -18 7 -30z" />
    <glyph glyph-name="HIN_DA_VA" horiz-adv-x="0" 
d="M-571 -40q3 -27 16.5 -45t34.5 -29t48.5 -15.5t57.5 -4.5q25 0 56.5 3.5t59.5 14t47.5 30t19.5 50.5q0 7 -2 15.5t-4 14.5q4 2 9.5 1t7.5 -1q2 -5 3 -11t1 -19q0 -46 -17 -76.5t-44.5 -49t-62 -26.5t-68.5 -8q-35 0 -67.5 9t-57.5 28.5t-40 49.5t-15 73v14.5t2 17.5
l18 -6q-4 -17 -3 -30z" />
    <glyph glyph-name="HIN_DA_YA" horiz-adv-x="0" 
d="M-649 -47q18 -50 57.5 -68t97.5 -19h35q25 0 52.5 3t52.5 13t44.5 28t27.5 47q2 7 2 13t2 17q4 2 9.5 1t7.5 -1q-1 -6 -1.5 -13t-2.5 -19q-8 -45 -26.5 -74t-44.5 -46.5t-57.5 -24t-65.5 -6.5h-34q-68 2 -112.5 38.5t-63.5 114.5q-2 8 -3.5 16t-1.5 16l18 -6q1 -16 7 -30
z" />
    <glyph glyph-name="HIN_DA_R" horiz-adv-x="0" 
d="M-819 -40q9 -26 32 -43.5t53 -28.5t62.5 -16t61.5 -6h35q25 0 61 4t71 14.5t63.5 29.5t37.5 50q2 7 3 16t1 14q4 2 9.5 1t7.5 -1q2 -14 -1 -30q-8 -45 -34.5 -75.5t-62.5 -49.5t-76 -27t-74 -8h-34q-34 1 -72 10t-72 28t-59 49t-33 73l-5 32l18 -6q2 -11 3.5 -17t3.5 -13
z" />
    <glyph glyph-name="HIN_NA_NA" horiz-adv-x="0" 
d="M-959 -50q11 -27 35.5 -43t56 -25t65 -12t62.5 -4h105q25 0 61.5 2.5t73 11.5t66.5 26.5t42 47.5q2 6 3.5 14.5t0.5 15.5q4 2 9.5 1t7.5 -1q0 -7 -0.5 -13t-3.5 -17q-12 -44 -40 -73t-64.5 -46t-76 -24t-73.5 -7h-104q-34 1 -71.5 8.5t-72 24.5t-61.5 45.5t-40 71.5
q-2 8 -3 14.5t-3 17.5l18 -6q2 -18 7 -30z" />
    <glyph glyph-name="HIN_HALF_NA_NA" horiz-adv-x="0" 
d="M-571 -40q3 -27 16.5 -45t34.5 -29t48.5 -15.5t57.5 -4.5q25 0 56.5 3.5t59.5 14t47.5 30t19.5 50.5q0 7 -2 15.5t-4 14.5q4 2 9.5 1t7.5 -1q2 -5 3 -11t1 -19q0 -46 -17 -76.5t-44.5 -49t-62 -26.5t-68.5 -8q-35 0 -67.5 9t-57.5 28.5t-40 49.5t-15 73v14.5t2 17.5
l18 -6q-4 -17 -3 -30z" />
    <glyph glyph-name="HIN_PHA_NA" horiz-adv-x="0" 
d="M-649 -47q18 -50 57.5 -68t97.5 -19h35q25 0 52.5 3t52.5 13t44.5 28t27.5 47q2 7 2 13t2 17q4 2 9.5 1t7.5 -1q-1 -6 -1.5 -13t-2.5 -19q-8 -45 -26.5 -74t-44.5 -46.5t-57.5 -24t-65.5 -6.5h-34q-68 2 -112.5 38.5t-63.5 114.5q-2 8 -3.5 16t-1.5 16l18 -6q1 -16 7 -30
z" />
    <glyph glyph-name="HIN_PA_TA" horiz-adv-x="0" 
d="M-819 -40q9 -26 32 -43.5t53 -28.5t62.5 -16t61.5 -6h35q25 0 61 4t71 14.5t63.5 29.5t37.5 50q2 7 3 16t1 14q4 2 9.5 1t7.5 -1q2 -14 -1 -30q-8 -45 -34.5 -75.5t-62.5 -49.5t-76 -27t-74 -8h-34q-34 1 -72 10t-72 28t-59 49t-33 73l-5 32l18 -6q2 -11 3.5 -17t3.5 -13
z" />
    <glyph glyph-name="HIN_MARATHI_LA_LA" horiz-adv-x="0" 
d="M-959 -50q11 -27 35.5 -43t56 -25t65 -12t62.5 -4h105q25 0 61.5 2.5t73 11.5t66.5 26.5t42 47.5q2 6 3.5 14.5t0.5 15.5q4 2 9.5 1t7.5 -1q0 -7 -0.5 -13t-3.5 -17q-12 -44 -40 -73t-64.5 -46t-76 -24t-73.5 -7h-104q-34 1 -71.5 8.5t-72 24.5t-61.5 45.5t-40 71.5
q-2 8 -3 14.5t-3 17.5l18 -6q2 -18 7 -30z" />
    <glyph glyph-name="HIN_TTHA_VA" horiz-adv-x="0" 
d="M-184 -3q0 -36 -13.5 -70.5t-40.5 -61.5t-67 -43.5t-94 -16.5t-93.5 17.5t-65.5 45t-38.5 62t-12.5 67.5q2 5 10.5 5.5t9.5 -4.5q0 -28 12 -56t36 -50t60.5 -36t84.5 -14t84 14t60 36t36 50t12 56q1 5 9.5 4.5t10.5 -5.5z" />
    <glyph glyph-name="HIN_SHH_TTHA_RA" horiz-adv-x="0" 
d="M-224 -3q0 -36 -15 -70.5t-44 -61.5t-70.5 -43.5t-95.5 -16.5t-95 17.5t-68.5 45t-42 62t-14.5 67.5q2 5 10.5 5.5t9.5 -4.5q0 -28 14 -56t39.5 -50t63.5 -36t86 -14t85.5 14t63.5 36t39.5 50t13.5 56q1 5 9.5 4.5t10.5 -5.5z" />
    <glyph glyph-name="HIN_SHORT_A_ANUSVAR" horiz-adv-x="0" 
d="M-314 -13q-3 -35 -23.5 -68t-55.5 -58.5t-81 -40.5t-100 -15t-100.5 15.5t-82.5 41t-59.5 58t-32.5 67.5q2 5 10.5 5.5t9.5 -4.5q11 -30 34.5 -56.5t57 -46.5t76 -31.5t90.5 -11.5t89.5 13t73 34t50.5 47t24 52q1 5 9.5 4.5t10.5 -5.5z" />
    <glyph glyph-name="HIN_SHA_CHA" horiz-adv-x="0" 
d="M-324 -13q-11 -34 -41 -67t-74.5 -58.5t-101.5 -41t-123 -15.5t-124 15t-104 40t-78.5 58t-48.5 69q2 5 10.5 5.5t9.5 -4.5q46 -67 131 -106.5t207 -39.5q61 0 112.5 13.5t91.5 34.5t68.5 47t44.5 51q1 5 9.5 4.5t10.5 -5.5z" />
    <glyph glyph-name="HIN_SHA_LA" horiz-adv-x="12" 
d="M-84 -129q0 -29 -18 -52.5t-50 -23.5q-16 0 -27.5 8t-21.5 20q-11 -15 -21.5 -23t-29.5 -8q-29 0 -48.5 21t-19.5 50q0 15 5 30.5t14.5 28t23 20.5t30.5 8q20 0 33 -11.5t13 -31.5q0 -17 -13.5 -29t-30.5 -12t-28.5 13t-13.5 28q-7 -5 -9.5 -15.5t-2.5 -18.5
q0 -19 12 -32t32 -13q15 0 24.5 5t15.5 11t11 17l3 1.5t3 0.5l4 -2q0 -1 2 -6.5t6.5 -11.5t12.5 -11t21 -5q21 0 33.5 14.5t12.5 34.5q0 31 -19 41t-38 3q-6 -2 -12.5 2.5t-6.5 11.5q0 10 9.5 13t17.5 3q34 0 52.5 -23.5t18.5 -55.5zM-13 -105q0 -23 -8 -43t-22 -40
q-17 -25 -38 -40t-45.5 -23t-51.5 -10.5t-55 -2.5q-8 0 -21.5 3.5t-28.5 8.5t-27.5 11t-18.5 11q-29 22 -49 54.5t-20 70.5q0 7 1 16t10 9q3 0 5.5 -3t4.5 -5q11 -72 59 -105.5t117 -33.5q43 0 85 20.5t65 58.5q8 15 10.5 30.5t7.5 32.5l9 2q8 0 9.5 -8t1.5 -14zM-223 -93
q0 12 -10 17.5t-21 5.5q-6 0 -10.5 -2.5t-4.5 -10.5q0 -11 6.5 -19.5t18.5 -8.5q8 0 14.5 5t6.5 13z" />
    <glyph glyph-name="HIN_SHA_LA1" horiz-adv-x="12" 
d="M-84 -129q0 -29 -18 -52.5t-50 -23.5q-16 0 -27.5 8t-21.5 20q-11 -15 -21.5 -23t-29.5 -8q-29 0 -48.5 21t-19.5 50q0 15 5 30.5t14.5 28t23 20.5t30.5 8q20 0 33 -11.5t13 -31.5q0 -17 -13.5 -29t-30.5 -12t-28.5 13t-13.5 28q-7 -5 -9.5 -15.5t-2.5 -18.5
q0 -19 12 -32t32 -13q15 0 24.5 5t15.5 11t11 17l3 1.5t3 0.5l4 -2q0 -1 2 -6.5t6.5 -11.5t12.5 -11t21 -5q21 0 33.5 14.5t12.5 34.5q0 31 -19 41t-38 3q-6 -2 -12.5 2.5t-6.5 11.5q0 10 9.5 13t17.5 3q34 0 52.5 -23.5t18.5 -55.5zM-13 -105q0 -23 -8 -43t-22 -40
q-17 -25 -38 -40t-45.5 -23t-51.5 -10.5t-55 -2.5q-8 0 -21.5 3.5t-28.5 8.5t-27.5 11t-18.5 11q-29 22 -49 54.5t-20 70.5q0 7 1 16t10 9q3 0 5.5 -3t4.5 -5q11 -72 59 -105.5t117 -33.5q43 0 85 20.5t65 58.5q8 15 10.5 30.5t7.5 32.5l9 2q8 0 9.5 -8t1.5 -14zM-223 -93
q0 12 -10 17.5t-21 5.5q-6 0 -10.5 -2.5t-4.5 -10.5q0 -11 6.5 -19.5t18.5 -8.5q8 0 14.5 5t6.5 13z" />
    <glyph glyph-name="HIN_SHA_VA" horiz-adv-x="12" 
d="M-84 -129q0 -29 -18 -52.5t-50 -23.5q-16 0 -27.5 8t-21.5 20q-11 -15 -21.5 -23t-29.5 -8q-29 0 -48.5 21t-19.5 50q0 15 5 30.5t14.5 28t23 20.5t30.5 8q20 0 33 -11.5t13 -31.5q0 -17 -13.5 -29t-30.5 -12t-28.5 13t-13.5 28q-7 -5 -9.5 -15.5t-2.5 -18.5
q0 -19 12 -32t32 -13q15 0 24.5 5t15.5 11t11 17l3 1.5t3 0.5l4 -2q0 -1 2 -6.5t6.5 -11.5t12.5 -11t21 -5q21 0 33.5 14.5t12.5 34.5q0 31 -19 41t-38 3q-6 -2 -12.5 2.5t-6.5 11.5q0 10 9.5 13t17.5 3q34 0 52.5 -23.5t18.5 -55.5zM-13 -105q0 -23 -8 -43t-22 -40
q-17 -25 -38 -40t-45.5 -23t-51.5 -10.5t-55 -2.5q-8 0 -21.5 3.5t-28.5 8.5t-27.5 11t-18.5 11q-29 22 -49 54.5t-20 70.5q0 7 1 16t10 9q3 0 5.5 -3t4.5 -5q11 -72 59 -105.5t117 -33.5q43 0 85 20.5t65 58.5q8 15 10.5 30.5t7.5 32.5l9 2q8 0 9.5 -8t1.5 -14zM-223 -93
q0 12 -10 17.5t-21 5.5q-6 0 -10.5 -2.5t-4.5 -10.5q0 -11 6.5 -19.5t18.5 -8.5q8 0 14.5 5t6.5 13z" />
    <glyph glyph-name="HIN_SA_TA_RA" horiz-adv-x="12" 
d="M-84 -129q0 -29 -18 -52.5t-50 -23.5q-16 0 -27.5 8t-21.5 20q-11 -15 -21.5 -23t-29.5 -8q-29 0 -48.5 21t-19.5 50q0 15 5 30.5t14.5 28t23 20.5t30.5 8q20 0 33 -11.5t13 -31.5q0 -17 -13.5 -29t-30.5 -12t-28.5 13t-13.5 28q-7 -5 -9.5 -15.5t-2.5 -18.5
q0 -19 12 -32t32 -13q15 0 24.5 5t15.5 11t11 17l3 1.5t3 0.5l4 -2q0 -1 2 -6.5t6.5 -11.5t12.5 -11t21 -5q21 0 33.5 14.5t12.5 34.5q0 31 -19 41t-38 3q-6 -2 -12.5 2.5t-6.5 11.5q0 10 9.5 13t17.5 3q34 0 52.5 -23.5t18.5 -55.5zM-13 -105q0 -23 -8 -43t-22 -40
q-17 -25 -38 -40t-45.5 -23t-51.5 -10.5t-55 -2.5q-8 0 -21.5 3.5t-28.5 8.5t-27.5 11t-18.5 11q-29 22 -49 54.5t-20 70.5q0 7 1 16t10 9q3 0 5.5 -3t4.5 -5q11 -72 59 -105.5t117 -33.5q43 0 85 20.5t65 58.5q8 15 10.5 30.5t7.5 32.5l9 2q8 0 9.5 -8t1.5 -14zM-223 -93
q0 12 -10 17.5t-21 5.5q-6 0 -10.5 -2.5t-4.5 -10.5q0 -11 6.5 -19.5t18.5 -8.5q8 0 14.5 5t6.5 13z" />
    <glyph glyph-name="HIN_SHA_NA" 
d="M45 745h-62l32 44h62z" />
    <glyph glyph-name="HIN_SHHA_TTA" horiz-adv-x="0" 
d="M-224 -3q0 -36 -15 -70.5t-44 -61.5t-70.5 -43.5t-95.5 -16.5t-95 17.5t-68.5 45t-42 62t-14.5 67.5q2 5 10.5 5.5t9.5 -4.5q0 -28 14 -56t39.5 -50t63.5 -36t86 -14t85.5 14t63.5 36t39.5 50t13.5 56q1 5 9.5 4.5t10.5 -5.5z" />
    <glyph glyph-name="HIN_SHHA_TTA_RA" horiz-adv-x="0" 
d="M-224 -3q0 -36 -15 -70.5t-44 -61.5t-70.5 -43.5t-95.5 -16.5t-95 17.5t-68.5 45t-42 62t-14.5 67.5q2 5 10.5 5.5t9.5 -4.5q0 -28 14 -56t39.5 -50t63.5 -36t86 -14t85.5 14t63.5 36t39.5 50t13.5 56q1 5 9.5 4.5t10.5 -5.5z" />
    <glyph glyph-name="HIN_SHHA_TTA_VA" horiz-adv-x="0" 
d="M-184 -3q0 -36 -13.5 -70.5t-40.5 -61.5t-67 -43.5t-94 -16.5t-93.5 17.5t-65.5 45t-38.5 62t-12.5 67.5q2 5 10.5 5.5t9.5 -4.5q0 -28 12 -56t36 -50t60.5 -36t84.5 -14t84 14t60 36t36 50t12 56q1 5 9.5 4.5t10.5 -5.5z" />
    <glyph glyph-name="HIN_TTHA_TTHA" horiz-adv-x="0" 
d="M-224 -3q0 -36 -15 -70.5t-44 -61.5t-70.5 -43.5t-95.5 -16.5t-95 17.5t-68.5 45t-42 62t-14.5 67.5q2 5 10.5 5.5t9.5 -4.5q0 -28 14 -56t39.5 -50t63.5 -36t86 -14t85.5 14t63.5 36t39.5 50t13.5 56q1 5 9.5 4.5t10.5 -5.5z" />
    <glyph glyph-name="HIN_SHHA_TTHA" horiz-adv-x="0" 
d="M-314 -13q-3 -35 -23.5 -68t-55.5 -58.5t-81 -40.5t-100 -15t-100.5 15.5t-82.5 41t-59.5 58t-32.5 67.5q2 5 10.5 5.5t9.5 -4.5q11 -30 34.5 -56.5t57 -46.5t76 -31.5t90.5 -11.5t89.5 13t73 34t50.5 47t24 52q1 5 9.5 4.5t10.5 -5.5z" />
    <glyph glyph-name="HIN_SHHA_TTHA_VA" horiz-adv-x="0" 
d="M-324 -13q-11 -34 -41 -67t-74.5 -58.5t-101.5 -41t-123 -15.5t-124 15t-104 40t-78.5 58t-48.5 69q2 5 10.5 5.5t9.5 -4.5q46 -67 131 -106.5t207 -39.5q61 0 112.5 13.5t91.5 34.5t68.5 47t44.5 51q1 5 9.5 4.5t10.5 -5.5z" />
    <glyph glyph-name="HIN_HA_NA" 
d="M45 745h-62l32 44h62z" />
    <glyph glyph-name="HIN_HA_NNA" 
d="M45 745h-62l32 44h62z" />
    <glyph glyph-name="HIN_HALFT_HA_MA" 
d="M45 745h-62l32 44h62z" />
    <glyph glyph-name="HIN_HA_MA" 
d="M45 745h-62l32 44h62z" />
    <glyph glyph-name="HIN_HA_YA" 
d="M45 745h-62l32 44h62z" />
    <glyph glyph-name="glyph397" 
d="M45 745h-62l32 44h62z" />
    <glyph glyph-name="glyph398" 
d="M45 745h-62l32 44h62z" />
    <glyph glyph-name="HIN_HA_LA" 
d="M45 745h-62l32 44h62z" />
    <glyph glyph-name="HIN_HA_VA" 
d="M45 745h-62l32 44h62z" />
    <glyph glyph-name="HIN_HALF_KSHA" 
d="M45 745h-62l32 44h62z" />
    <glyph glyph-name="HIN_KSHA" 
d="M45 745h-62l32 44h62z" />
    <glyph glyph-name="HIN_HALF_JNA" 
d="M45 745h-62l32 44h62z" />
    <glyph glyph-name="HIN_JNA" 
d="M45 745h-62l32 44h62z" />
    <glyph glyph-name="HIN_KA_NUKTA_U" 
d="M45 745h-62l32 44h62z" />
    <glyph glyph-name="HIN_KHA_NUKTA_U" 
d="M45 745h-62l32 44h62z" />
    <glyph glyph-name="HIN_GA_NUKTA_U" 
d="M45 745h-62l32 44h62z" />
    <glyph glyph-name="HIN_JA_NUKTA_U" 
d="M45 745h-62l32 44h62z" />
    <glyph glyph-name="HIN_DDA_NUKTA_U" 
d="M45 745h-62l32 44h62z" />
    <glyph glyph-name="HIN_DDHA_NUKTA_U" 
d="M45 745h-62l32 44h62z" />
    <glyph glyph-name="HIN_PHA_NUKTA_U" 
d="M45 745h-62l32 44h62z" />
    <glyph glyph-name="HIN_YA_NUKTA_U" 
d="M45 745h-62l32 44h62z" />
    <glyph glyph-name="HIN_RA_NUKTA_U" 
d="M45 745h-62l32 44h62z" />
    <glyph glyph-name="HIN_KA_NUKTA_UU" 
d="M45 745h-62l32 44h62z" />
    <glyph glyph-name="HIN_KHA_NUKTA_UU" 
d="M45 745h-62l32 44h62z" />
    <glyph glyph-name="HIN_GA_NUKTA_UU" 
d="M45 745h-62l32 44h62z" />
    <glyph glyph-name="HIN_JA_NUKTA_UU" 
d="M45 745h-62l32 44h62z" />
    <glyph glyph-name="HIN_DDA_NUKTA_UU" 
d="M45 745h-62l32 44h62z" />
    <glyph glyph-name="HIN_DDHA_NUKTA_UU" 
d="M45 745h-62l32 44h62z" />
    <glyph glyph-name="HIN_PHA_NUKTA_UU" 
d="M45 745h-62l32 44h62z" />
    <glyph glyph-name="HIN_YA_NUKTA_UU" 
d="M45 745h-62l32 44h62z" />
    <glyph glyph-name="HIN_RA_NUKTA_UU" 
d="M45 745h-62l32 44h62z" />
    <glyph glyph-name="HIN_RA_U" 
d="M45 745h-62l32 44h62z" />
    <glyph glyph-name="HIN_HA_U" 
d="M45 745h-62l32 44h62z" />
    <glyph glyph-name="HIN_RA_UU" 
d="M45 745h-62l32 44h62z" />
    <glyph glyph-name="HIN_HA_UU" 
d="M45 745h-62l32 44h62z" />
    <glyph glyph-name="HIN_NGA_KA_U" 
d="M45 745h-62l32 44h62z" />
    <glyph glyph-name="HIN_NGA_KA_TA_U" 
d="M45 745h-62l32 44h62z" />
    <glyph glyph-name="HIN_NGA_KHA_U" 
d="M45 745h-62l32 44h62z" />
    <glyph glyph-name="HIN_NGA_GA_U" 
d="M45 745h-62l32 44h62z" />
    <glyph glyph-name="HIN_NGA_GHA_U" 
d="M45 745h-62l32 44h62z" />
    <glyph glyph-name="HIN_TTA_TTA_U" 
d="M45 745h-62l32 44h62z" />
    <glyph glyph-name="HIN_TTA_TTHA_U" 
d="M45 745h-62l32 44h62z" />
    <glyph glyph-name="HIN_TTHA_TTHA_U" 
d="M45 745h-62l32 44h62z" />
    <glyph glyph-name="HIN_DDA_TTA_U" 
d="M45 745h-62l32 44h62z" />
    <glyph glyph-name="HIN_DDA_DDA_U" 
d="M45 745h-62l32 44h62z" />
    <glyph glyph-name="HIN_DDA_DDHA_U" 
d="M45 745h-62l32 44h62z" />
    <glyph glyph-name="HIN_DDHA_DDHA_U" 
d="M45 745h-62l32 44h62z" />
    <glyph glyph-name="HIN_DA_BHA_U" 
d="M45 745h-62l32 44h62z" />
    <glyph glyph-name="HIN_DA_DA_U" 
d="M45 745h-62l32 44h62z" />
    <glyph glyph-name="HIN_SHHA_TTA_U" 
d="M45 745h-62l32 44h62z" />
    <glyph glyph-name="HIN_SHHA_TTA_RA_U" 
d="M45 745h-62l32 44h62z" />
    <glyph glyph-name="HIN_SHHA_TTA_VA_U" 
d="M45 745h-62l32 44h62z" />
    <glyph glyph-name="HIN_SHHA_TTHA_U" 
d="M45 745h-62l32 44h62z" />
    <glyph glyph-name="HIN_SHHA_TTHA_RA_U" 
d="M45 745h-62l32 44h62z" />
    <glyph glyph-name="HIN_SHHA_TTHA_VA_U" 
d="M45 745h-62l32 44h62z" />
    <glyph glyph-name="HIN_HA_NNA_U" 
d="M45 745h-62l32 44h62z" />
    <glyph glyph-name="HIN_HA_NA_U" 
d="M45 745h-62l32 44h62z" />
    <glyph glyph-name="HIN_HA_MA_U" 
d="M45 745h-62l32 44h62z" />
    <glyph glyph-name="HIN_HA_YA_U" 
d="M45 745h-62l32 44h62z" />
    <glyph glyph-name="HIN_HA_RA_U" 
d="M45 745h-62l32 44h62z" />
    <glyph glyph-name="HIN_HA_LA_U" 
d="M45 745h-62l32 44h62z" />
    <glyph glyph-name="HIN_HA_VA_U" 
d="M45 745h-62l32 44h62z" />
    <glyph glyph-name="HIN_NGA_KA_UU" 
d="M45 745h-62l32 44h62z" />
    <glyph glyph-name="HIN_NGA_KA_TA_UU" 
d="M45 745h-62l32 44h62z" />
    <glyph glyph-name="HIN_NGA_KHA_UU" 
d="M45 745h-62l32 44h62z" />
    <glyph glyph-name="HIN_NGA_GA_UU" 
d="M45 745h-62l32 44h62z" />
    <glyph glyph-name="HIN_NGA_GHA_UU" 
d="M45 745h-62l32 44h62z" />
    <glyph glyph-name="HIN_TTA_TTA_UU" 
d="M45 745h-62l32 44h62z" />
    <glyph glyph-name="HIN_TTA_TTHA_UU" 
d="M45 745h-62l32 44h62z" />
    <glyph glyph-name="HIN_TTHA_TTHA_UU" 
d="M45 745h-62l32 44h62z" />
    <glyph glyph-name="HIN_DDA_TTA_UU" 
d="M45 745h-62l32 44h62z" />
    <glyph glyph-name="HIN_DDA_DDA_UU" 
d="M45 745h-62l32 44h62z" />
    <glyph glyph-name="HIN_DDA_DDHA_UU" 
d="M45 745h-62l32 44h62z" />
    <glyph glyph-name="HIN_DDHA_DDHA_UU" 
d="M45 745h-62l32 44h62z" />
    <glyph glyph-name="HIN_DA_BHA_UU" 
d="M45 745h-62l32 44h62z" />
    <glyph glyph-name="HIN_DA_DA_UU" horiz-adv-x="0" 
d="M-51 -138h-18q-4 0 -8 0.5t-6 0.5h-56q-3 0 -6 -0.5t-5 -0.5h-23q9 -13 14.5 -27.5t5.5 -29.5q0 -26 -10 -45.5t-27 -33t-39.5 -20.5t-46.5 -7q-25 0 -47 7t-39 19.5t-27 31.5t-10 43q0 35 21 60h-125v58h213l-8 -58q-20 0 -34.5 -14t-14.5 -27q0 -54 73 -54
q29 0 50.5 13.5t21.5 39.5q0 34 -58 45v55h209v-56zM33 -148q0 -48 -25.5 -94.5t-68.5 -82.5t-101 -58t-122 -22q-63 0 -118.5 22t-97.5 56t-66.5 76t-24.5 83q0 42 19 42q23 0 23 -31q0 -35 22.5 -69t60 -60t86 -42t99.5 -16q52 0 100.5 17t86 45.5t59.5 64.5t22 74
q0 34 24 34q22 0 22 -39z" />
    <glyph glyph-name="HIN_SHHA_TTA_UU" horiz-adv-x="0" 
d="M-410 -178q-4 0 -9 0.5t-10 0.5h-70q-3 0 -6 -0.5t-5 -0.5h-23q9 -13 14.5 -28t5.5 -29q0 -25 -10 -45t-27.5 -33.5t-39.5 -21t-46 -7.5q-25 0 -47.5 7t-39 20t-26.5 31.5t-10 42.5q0 17 5 32.5t17 29.5h-126v56h213l-8 -56q-20 0 -35 -14t-15 -28q0 -53 74 -53
q29 0 50 13t21 38q0 35 -57 46v54h210v-55zM-328 -188q0 -48 -25.5 -93.5t-68.5 -81.5t-100.5 -57.5t-121.5 -21.5q-63 0 -119 21.5t-98 55.5t-66.5 75.5t-24.5 82.5t21 41q9 0 15 -8t6 -22q0 -35 23 -69t60.5 -60.5t86 -43t99.5 -16.5q52 0 100.5 17.5t85.5 46.5t59 65
t22 74q0 32 24 32q22 0 22 -38z" />
    <glyph glyph-name="HIN_SHHA_TTA_RA_UU" horiz-adv-x="0" 
d="M-329 -165q-4 0 -9 0.5t-9 0.5h-69q-3 0 -6 -0.5t-5 -0.5h-23q9 -12 14.5 -27t5.5 -29q0 -26 -10 -45.5t-27 -33.5t-39.5 -21t-46.5 -7q-25 0 -47 7t-39 19.5t-27 31.5t-10 43q0 17 5 32t17 29h-126v57h213l-7 -57q-20 0 -35 -13.5t-15 -27.5q0 -53 73 -53q28 0 50 12.5
t22 38.5q0 34 -60 45v55h210v-56zM-244 -175q0 -47 -25.5 -93t-68.5 -82t-101 -58t-122 -22q-63 0 -119 22t-98 56t-67 76t-25 83t21 41q11 0 17 -8t6 -22q0 -35 22.5 -69t60 -60.5t86 -43t99.5 -16.5q52 0 100.5 17.5t86 46t59.5 65t22 73.5q0 33 24 33q22 0 22 -39z" />
    <glyph glyph-name="HIN_SHHA_TTA_VA_UU" horiz-adv-x="0" 
d="M-718 -165h-18q-4 0 -7.5 0.5t-6.5 0.5h-55q-3 0 -6 -0.5t-5 -0.5h-23q20 -23 20 -56q0 -26 -10 -45.5t-27.5 -33.5t-39.5 -21t-46 -7q-25 0 -47.5 7t-39.5 19.5t-27 31.5t-10 43q0 17 5 32t17 29h-125v57h213l-8 -57q-20 0 -35 -13.5t-15 -27.5q0 -53 73 -53
q29 0 50.5 12.5t21.5 38.5q0 35 -58 45v55h209v-56zM-634 -175q0 -47 -25.5 -93t-68.5 -82t-100.5 -58t-121.5 -22q-63 0 -119 22t-98 56t-67 76t-25 83t21 41q10 0 15.5 -8t5.5 -22q0 -35 23 -69t61 -60.5t86 -43t99 -16.5q52 0 101 17.5t86 46t59.5 65t22.5 73.5
q0 33 24 33q9 0 15 -10t6 -29z" />
    <glyph glyph-name="HIN_SHHA_TTHA_UU" horiz-adv-x="438" 
d="M269 0q-19 0 -33.5 7.5t-25.5 16.5q-6 5 -11 11.5t-10 13.5q-5 -7 -10.5 -13.5t-11.5 -11.5q-11 -9 -25.5 -16.5t-33.5 -7.5q-38 0 -62 22t-35.5 54.5t-10.5 70.5t12 70.5t32 54.5t50 22q24 0 43.5 -18.5t19.5 -43.5q0 -26 -18.5 -41.5t-44.5 -15.5q-18 0 -31.5 8
t-27.5 22q-1 0 -4 -11.5t-4.5 -29t1 -37.5t11 -37.5t25 -29t44.5 -11.5q20 0 33.5 8t21.5 19q10 10 15 27q0 2 2 4q4 4 9 4q4 0 8 -4l3 -4q4 -17 15 -27q8 -11 21 -19t33 -8q28 0 44.5 11.5t25.5 29t11 37.5t1 37.5t-4 29t-4 11.5q-14 -14 -27.5 -22t-31.5 -8
q-26 0 -44.5 15.5t-18.5 41.5q0 25 19.5 43.5t43.5 18.5q29 0 50 -22t32 -54.5t11.5 -70.5t-11 -70.5t-35.5 -54.5t-62 -22zM248 231q0 -18 11 -26t25 -8q11 0 20 4t16 9q8 6 14 14q0 4 -3.5 11.5t-10 14.5t-15.5 12t-21 5q-14 0 -25 -12t-11 -24zM130 231q0 12 -11 24
t-25 12q-12 0 -21 -5t-15.5 -12t-10 -14.5t-3.5 -11.5q6 -8 14 -14q7 -5 16 -9t20 -4q14 0 25 8t11 26z" />
    <glyph glyph-name="HIN_SHHA_TTHA_RA_UU" horiz-adv-x="0" 
d="M-27 -438q0 -12 -11 -16.5t-21 -4.5q-23 0 -35.5 17t-12.5 38q-10 -8 -24 -13.5t-28 -5.5q-20 0 -38.5 10.5t-26.5 29.5q-7 -17 -25.5 -28.5t-40.5 -11.5q-27 0 -47.5 17t-20.5 46q0 16 10.5 30.5t29.5 14.5q6 0 11 -3.5t5 -10.5q0 -10 -5 -11.5t-7 -1.5t-3.5 1t-3.5 1
q-8 0 -12.5 -6t-4.5 -13q0 -19 15.5 -24.5t31.5 -5.5q17 0 28.5 5t18.5 11t10 12.5t3 9.5q0 5 6 5q7 0 7 -5q0 -11 16 -25.5t46 -14.5q15 0 29.5 7t14.5 24q0 18 -14 19q-2 1 -4.5 0t-4.5 -1q-5 0 -8 4t-3 9t4 9.5t11 4.5q20 0 30 -16.5t10 -30.5q0 -7 -1.5 -11t-1.5 -10
q0 -14 7.5 -30t24.5 -16q7 0 10 3.5t9 3.5t11 -4.5t5 -11.5zM-120 -240q0 -26 -25 -48t-76 -22q-17 0 -34.5 5t-32 14.5t-23.5 23t-9 30.5q0 10 5 14.5t11.5 4.5t11.5 -3t5 -8q0 -13 6.5 -21t16.5 -12.5t21.5 -6t21.5 -1.5q36 0 54 12t18 27q0 9 -2.5 16t-10.5 12.5t-22 8.5
t-37 3q-51 0 -72 13t-21 39t25.5 46.5t67.5 20.5q15 0 40 -7t40 -22q9 -11 8.5 -19.5t-5.5 -13.5t-12.5 -5.5t-12.5 4.5q-1 1 -5.5 8t-12 14.5t-17.5 13.5t-23 6q-35 0 -52.5 -14.5t-17.5 -31.5t19.5 -24.5t50.5 -7.5q101 0 101 -69z" />
    <glyph glyph-name="HIN_SHHA_TTHA_VA_UU" horiz-adv-x="12" 
d="M-336 -58q0 19 13 31.5t33 12.5q19 0 31.5 -13t12.5 -33q0 -8 -3 -17l3 -2l138 1q6 0 11 -3t5 -11t-7.5 -10.5t-14.5 -2.5h-176q-19 0 -32.5 14t-13.5 33zM-13 -21q0 -40 -18.5 -73t-48 -56t-66.5 -36t-74 -13t-73 13t-64.5 36.5t-46 56.5t-17.5 72q0 8 1 15t9 10l9 -7
q4 -36 20 -65t41 -49t56.5 -30.5t67.5 -10.5q26 0 52 6.5t49 19t41 31.5t29 44q5 13 7.5 26.5t6.5 27.5l8 6q8 -2 9.5 -9.5t1.5 -14.5zM-315 -58q0 -10 6.5 -17.5t16.5 -7.5q24 0 24 25q0 9 -7 16t-17 7q-9 0 -16 -7t-7 -16z" />
    <glyph glyph-name="HIN_HA_NA_UU" horiz-adv-x="12" 
d="M-336 -58q0 19 13 31.5t33 12.5q19 0 31.5 -13t12.5 -33q0 -8 -3 -17l3 -2l138 1q6 0 11 -3t5 -11t-7.5 -10.5t-14.5 -2.5h-176q-19 0 -32.5 14t-13.5 33zM-13 -21q0 -40 -18.5 -73t-48 -56t-66.5 -36t-74 -13t-73 13t-64.5 36.5t-46 56.5t-17.5 72q0 8 1 15t9 10l9 -7
q4 -36 20 -65t41 -49t56.5 -30.5t67.5 -10.5q26 0 52 6.5t49 19t41 31.5t29 44q5 13 7.5 26.5t6.5 27.5l8 6q8 -2 9.5 -9.5t1.5 -14.5zM-315 -58q0 -10 6.5 -17.5t16.5 -7.5q24 0 24 25q0 9 -7 16t-17 7q-9 0 -16 -7t-7 -16z" />
    <glyph glyph-name="HIN_HA_NNA_UU" horiz-adv-x="12" 
d="M38 -81q0 -80 -66.5 -129t-202.5 -49q-58 0 -106 13t-82.5 36.5t-53.5 56.5t-19 72q0 8 1 15t11 10l11 -7q10 -73 69.5 -114t172.5 -41q48 0 84.5 6.5t63.5 19t45.5 31.5t31.5 44q7 13 9.5 26.5t7.5 27.5l10 6q10 -2 11.5 -9.5t1.5 -14.5zM-47 -134q0 -8 -6 -13.5
t-14 -5.5h-290q-29 0 -51 22t-22 51q0 15 6 28t16 23.5t23 16.5t28 6q32 0 53 -21t21 -53q0 -8 -2.5 -13.5t-4.5 -10.5l-6 -9h229q8 0 14 -6.5t6 -14.5zM-308 -85q0 18 -15 30.5t-34 12.5q-18 0 -34 -12.5t-16 -30.5q0 -19 15.5 -31t34.5 -12t34 12t15 31z" />
    <glyph glyph-name="HIN_HA_MA_UU" horiz-adv-x="0" 
d="M15 -162q0 -31 -18.5 -63t-55 -57.5t-92 -41.5t-130.5 -16q-64 0 -116.5 16t-90.5 41.5t-59 57t-21 63.5q0 8 1 15t12 10l12 -7q4 -27 23 -54.5t52.5 -50t81 -36.5t109.5 -14q53 0 94.5 9t72 23t50.5 32.5t31 36.5q7 13 10 26.5t8 27.5l11 6q11 -2 13 -9.5t2 -14.5z" />
    <glyph glyph-name="HIN_HA_YA_UU" horiz-adv-x="0" 
d="M53 -154q0 -31 -16.5 -62.5t-50 -56.5t-84 -41t-118.5 -16q-58 0 -106 15.5t-82.5 41t-53.5 56.5t-19 63q0 8 1 15t11 10l11 -7q4 -27 21 -54.5t47.5 -50t74 -36.5t99.5 -14q48 0 85.5 9t65.5 23t46 32.5t28 36.5q7 13 9.5 26.5t7.5 27.5l10 6q10 -2 11.5 -9.5t1.5 -14.5
z" />
    <glyph glyph-name="HIN_HA_RA_UU" horiz-adv-x="0" 
d="M-769 -50q11 -27 35.5 -43t56 -25t65 -12t62.5 -4h105q25 0 61.5 2.5t73 11.5t66.5 26.5t42 47.5q2 6 3.5 14.5t0.5 15.5q4 2 9.5 1t7.5 -1q0 -7 -0.5 -13t-3.5 -17q-12 -44 -40 -73t-64.5 -46t-76 -24t-73.5 -7h-104q-34 1 -71.5 8.5t-72 24.5t-61.5 45.5t-40 71.5
q-2 8 -3 14.5t-3 17.5l18 -6q2 -18 7 -30z" />
    <glyph glyph-name="HIN_HA_LA_UU" horiz-adv-x="0" 
d="M-629 -40q9 -26 32 -43.5t53 -28.5t62.5 -16t61.5 -6h35q25 0 61 4t71 14.5t63.5 29.5t37.5 50q2 7 3 16t1 14q4 2 9.5 1t7.5 -1q2 -14 -1 -30q-8 -45 -34.5 -75.5t-62.5 -49.5t-76 -27t-74 -8h-34q-34 1 -72 10t-72 28t-59 49t-33 73l-5 32l18 -6q2 -11 3.5 -17t3.5 -13
z" />
    <glyph glyph-name="HIN_HA_VA_UU" horiz-adv-x="305" 
d="M306 408q-26 -20 -49.5 -37t-43.5 -33q-18 -13 -34 -25t-30 -22q18 -4 38 -12.5t34 -21.5q12 -13 11.5 -23.5t-7 -16.5t-16 -6.5t-15.5 5.5q-1 1 -6.5 9t-14.5 17.5t-22 17t-29 7.5q-42 0 -64 -17.5t-22 -38.5t24 -30t62 -9q125 0 125 -86q0 -16 -7.5 -31.5t-23.5 -27.5
t-39.5 -19.5t-54.5 -7.5q-21 0 -42.5 6t-39 17.5t-29 28t-11.5 37.5q0 12 6 18t13.5 6.5t14 -3.5t6.5 -10q0 -16 8 -26t20.5 -15.5t27 -7.5t26.5 -2q45 0 67 15t22 33q0 10 -3 19t-13 16t-27.5 10.5t-45.5 3.5q-63 0 -89 16.5t-26 48.5q0 24 18 44.5t49 30.5q-15 8 -28.5 16
t-16.5 12q-11 11 -10 22t8.5 18t19.5 7t23 -11q4 -4 9.5 -12t11 -17t11 -17t9.5 -11q2 0 4 0.5t4 0.5q9 6 31.5 27.5t48.5 46.5l78 76q5 5 13 3t14 -8t7.5 -15t-5.5 -16zM361 -158q0 -15 -13.5 -21t-25.5 -6q-28 0 -44 21.5t-16 47.5q-11 -11 -28 -17.5t-35 -6.5
q-25 0 -48 13t-32 37q-8 -22 -31.5 -36t-50.5 -14q-33 0 -58 21t-25 56q0 20 12.5 38.5t35.5 18.5q8 0 14 -5t6 -13q0 -11 -6 -13t-9 -2q-2 0 -4 1t-4 1q-9 0 -15 -7.5t-6 -15.5q0 -12 5.5 -19.5t14 -11.5t18.5 -5.5t20 -1.5q21 0 35.5 6t23 14t12 15.5t3.5 10.5q0 7 7 7
q9 0 9 -5q0 -7 5 -15.5t15 -16t24.5 -13t32.5 -5.5t36 8.5t18 29.5t-18 24q-2 1 -4.5 0t-6.5 -1q-5 0 -9 4.5t-4 10.5q0 7 5.5 12.5t13.5 5.5q12 0 21 -6t15.5 -15t9.5 -19t3 -19q0 -8 -2 -13t-2 -13t2.5 -18t7 -18.5t12 -14t17.5 -5.5q8 0 12.5 4.5t11.5 4.5q8 0 13.5 -6
t5.5 -14z" />
    <glyph glyph-name="HIN_AVAGRAH" horiz-adv-x="385" 
d="M239 0q-25 0 -42 11t-28.5 28t-20.5 36.5t-18.5 36.5t-22 28t-30.5 11q-19 0 -31.5 -15t-12.5 -32q0 -16 7 -27t15.5 -20t15.5 -17t7 -17q0 -11 -8 -17t-19 -6q-13 0 -22.5 10.5t-16 24.5t-9.5 29.5t-3 25.5q0 33 20 59t55 26q22 0 36.5 -9.5t26 -23.5t21 -30t20 -30
t25 -23.5t35.5 -9.5q24 0 39.5 14.5t22.5 36t5.5 47t-10.5 47t-26 36t-41 14.5q-15 0 -22 8t-7 17t6 17t16 8q35 0 59.5 -22t38 -54.5t15.5 -70.5t-7.5 -70.5t-31.5 -54.5t-57 -22zM387 -21q0 -40 -18.5 -73t-48 -56t-66.5 -36t-74 -13t-73 13t-64.5 36.5t-46 56.5t-17.5 72
q0 8 1 15t9 10l9 -7q4 -36 20 -65t41 -49t56.5 -30.5t67.5 -10.5q26 0 52 6.5t49 19t41 31.5t29 44q5 13 7.5 26.5t6.5 27.5l8 6q8 -2 9.5 -9.5t1.5 -14.5zM185 364q-18 -13 -35.5 -25.5t-31 -22.5t-22.5 -16t-10 -6q-2 0 -14.5 6t-27.5 14t-28 15.5t-16 10.5
q-11 11 -10 22.5t8.5 18t19.5 7t23 -11.5q4 -4 10.5 -13.5t13 -19.5t12.5 -17.5t9 -7.5q2 0 10 6.5t19.5 17t26 24.5t29.5 28l36 36l41 41q6 5 14 3t14 -8.5t7.5 -15t-5.5 -15.5z" />
    <glyph glyph-name="HIN_MATRA_A" horiz-adv-x="385" 
d="M239 0q-25 0 -42 11t-28.5 28t-20.5 36.5t-18.5 36.5t-22 28t-30.5 11q-19 0 -31.5 -15t-12.5 -32q0 -16 7 -27t15.5 -20t15.5 -17t7 -17q0 -11 -8 -17t-19 -6q-13 0 -22.5 10.5t-16 24.5t-9.5 29.5t-3 25.5q0 33 20 59t55 26q22 0 36.5 -9.5t26 -23.5t21 -30t20 -30
t25 -23.5t35.5 -9.5q24 0 39.5 14.5t22.5 36t5.5 47t-10.5 47t-26 36t-41 14.5q-15 0 -22 8t-7 17t6 17t16 8q35 0 59.5 -22t38 -54.5t15.5 -70.5t-7.5 -70.5t-31.5 -54.5t-57 -22zM397 -21q0 -40 -18.5 -73t-48 -56t-66.5 -36t-74 -13t-73 13t-64.5 36.5t-46 56.5t-17.5 72
q0 8 1 15t9 10l9 -7q4 -36 20 -65t41 -49t56.5 -30.5t67.5 -10.5q26 0 52 6.5t49 19t41 31.5t29 44q5 13 7.5 26.5t6.5 27.5l8 6q8 -2 9.5 -9.5t1.5 -14.5zM185 364q-18 -13 -35.5 -25.5t-31 -22.5t-22.5 -16t-10 -6q-2 0 -14.5 6t-27.5 14t-28 15.5t-16 10.5
q-11 11 -10 22.5t8.5 18t19.5 7t23 -11.5q4 -4 10.5 -13.5t13 -19.5t12.5 -17.5t9 -7.5q2 0 10 6.5t19.5 17t26 24.5t29.5 28l36 36l41 41q6 5 14 3t14 -8.5t7.5 -15t-5.5 -15.5zM318 -58q0 -19 -13.5 -33t-32.5 -14h-176q-7 0 -14.5 2.5t-7.5 10.5t5 11t11 3l138 -1l3 2
q-3 9 -3 17q0 20 12.5 33t31.5 13q20 0 33 -12.5t13 -31.5zM297 -58q0 9 -7 16t-16 7q-10 0 -17 -7t-7 -16q0 -25 24 -25q10 0 16.5 7.5t6.5 17.5z" />
    <glyph glyph-name="HIN_MATRA_I" horiz-adv-x="498" 
d="M341 279q0 -32 -13.5 -61t-36.5 -50q14 -18 21.5 -36.5t7.5 -41.5q0 -17 -5.5 -33t-15.5 -28.5t-25 -20t-33 -7.5q-29 0 -47.5 18.5t-18.5 47.5q0 17 7 32t18.5 27.5t25.5 23t28 18.5q-17 17 -31.5 21t-31.5 4q-28 0 -41 -12.5t-13 -23.5q0 -4 1.5 -7.5t1.5 -6.5
q0 -10 -8 -18t-18 -8q-13 0 -20 8.5t-7 20.5q0 30 24 53t69 23q29 0 52 -10t43 -27q20 17 30 42t10 51q0 21 -7 40t-18.5 34t-26.5 24t-30 9q2 -3 8 -18.5t6 -29.5q0 -27 -19 -48.5t-48 -21.5q-27 0 -46 20t-19 46q0 32 21 53t51 28q-12 16 -20 27t-8 31q0 27 18 45t45 18
q22 0 40.5 -14t18.5 -38q0 -7 -3.5 -13.5t-11.5 -6.5q-5 0 -9 5t-8.5 10.5t-11 10.5t-15.5 5q-13 0 -23.5 -9.5t-10.5 -23.5q0 -9 10 -23.5t16 -20.5q28 -1 51.5 -13t40 -31t26 -43.5t9.5 -50.5zM446 67q0 -35 -14 -72.5t-42.5 -68t-70.5 -50t-97 -19.5q-54 0 -95.5 19.5
t-69.5 50t-42.5 68t-14.5 72.5q0 13 2.5 28.5t6.5 29t8.5 24t7.5 13.5q1 0 2 1q1 0 2 0.5t3 -1.5l2 -4q0 -2 1 -3q-2 -2 -5 -19.5t-3 -35.5q0 -35 14.5 -69.5t40.5 -62.5t62 -45t80 -17t80 17t62 45t40 62.5t14 69.5q0 18 -3.5 35.5t-5.5 19.5q0 2 1 3q0 2 2 4q1 2 2.5 1.5
t2.5 -0.5q1 -1 2 -1q3 -3 7.5 -13.5t8.5 -24t6.5 -29t2.5 -28.5zM288 104q0 11 -5 24.5t-13 21.5q-8 -5 -19 -12.5t-20.5 -16.5t-16 -19.5t-6.5 -22.5q0 -14 10 -20t23 -6q21 0 34 15.5t13 35.5zM222 347q0 2 -1.5 8t-3.5 12t-5 10.5t-6 4.5q-18 0 -35 -16.5t-17 -34.5
q0 -13 8 -22t21 -9q17 0 28 15t11 32z" />
    <glyph glyph-name="HIN_MATRA_I1" horiz-adv-x="0" 
d="M-419 -47q18 -50 57.5 -68t97.5 -19h35q25 0 52.5 3t52.5 13t44.5 28t27.5 47q2 7 2 13t2 17q4 2 9.5 1t7.5 -1q-1 -6 -1.5 -13t-2.5 -19q-8 -45 -26.5 -74t-44.5 -46.5t-57.5 -24t-65.5 -6.5h-34q-68 2 -112.5 38.5t-63.5 114.5q-2 8 -3.5 16t-1.5 16l18 -6q1 -16 7 -30
z" />
    <glyph glyph-name="HIN_MATRA_I2" horiz-adv-x="90" 
d="M247 -171q-17 0 -43.5 -1.5t-55 0t-54.5 7.5t-42 22q-18 18 -29 50t-16.5 71.5t-6 84t1.5 88.5q4 102 23 221q0 6 3.5 10.5t7.5 5t7.5 -3.5t3.5 -13q-7 -55 -11 -105.5t-6 -98.5q-1 -40 0 -81t6 -77t14.5 -64.5t24.5 -43.5q13 -12 29 -18t36.5 -7.5t46.5 -1t60 0.5
q12 0 17.5 -7t5 -16t-6.5 -16t-16 -7z" />
    <glyph glyph-name="HIN_MATRA_II" horiz-adv-x="378" 
d="M310 200q0 -89 -55 -168t-166 -145l-18 31q56 50 90 85t52 64t24 57t6 65q0 12 -2.5 29.5t-5.5 33.5q-19 -14 -36.5 -19.5t-39.5 -5.5q-95 0 -95 88q0 40 29 65.5t71 25.5q32 0 58.5 -15t46 -42t30.5 -65t11 -84zM164 273q37 0 53 19q-13 20 -25.5 31.5t-27.5 11.5
q-34 0 -34 -33q0 -29 34 -29z" />
    <glyph glyph-name="HIN_MATRA_II1" horiz-adv-x="21" 
d="M-90 -317q0 -63 -24.5 -95t-56.5 -32q-42 0 -61 44q-23 -44 -68 -44q-26 0 -44.5 24t-18.5 60t19 58.5t52 22.5q57 0 74 -72q12 -41 45 -41q25 0 43 22.5t18 64.5q0 15 -5.5 31t-15 28.5t-21.5 20.5t-25 8q-22 0 -22 22q0 21 25 21q16 0 31.5 -13t27.5 -33t19.5 -46
t7.5 -51zM0 -325q0 -48 -18 -90.5t-50 -73.5t-76.5 -49t-96.5 -18q-47 0 -87.5 18.5t-70 50.5t-46.5 75t-17 92q0 30 11 30q13 0 13 -27q0 -42 15.5 -77t42.5 -60t63.5 -39t78.5 -14q44 0 83 14.5t68.5 40t46.5 60.5t17 76q0 21 11 21q12 0 12 -30zM-241 -351q-14 44 -52 44
q-43 0 -43 -43q0 -42 41 -42q40 0 54 41z" />
    <glyph glyph-name="HIN_MATRA_U" horiz-adv-x="12" 
d="M9 -203q0 -8 -6 -13.5t-14 -5.5h-441q-15 0 -28 6t-23.5 16t-16.5 23t-6 28t6 28t16.5 23.5t23.5 16.5t28 6q31 0 52.5 -21t21.5 -53q0 -8 -2.5 -13.5t-4.5 -10.5l-6 -9h380q8 0 14 -6.5t6 -14.5zM-404 -154q0 19 -15 31t-33 12q-19 0 -34.5 -12t-15.5 -31t15.5 -31
t34.5 -12q18 0 33 12t15 31zM-62 -96q0 -7 -2.5 -15.5t-7.5 -16t-12 -13t-17 -5.5q-5 0 -11 3t-6 9q0 10 5.5 12t12 3t12 4t5.5 15q0 10 -6.5 16t-14.5 9t-16 4t-12 1q-19 0 -31 -7.5t-19 -17t-9.5 -18t-2.5 -10.5q0 -3 -7 -3q-5 0 -5 3q0 2 -3 10.5t-10.5 18t-20 17
t-31.5 7.5q-4 0 -12 -1t-16 -4.5t-14 -10t-6 -16.5q0 -12 5.5 -15.5t12 -4t12 -2.5t5.5 -11t-6 -11t-11 -2q-11 0 -18.5 5.5t-12 14t-6.5 17.5t-2 15q0 26 19.5 46t47.5 20q19 0 40 -12.5t31 -41.5q22 54 70 54q15 0 27.5 -5.5t22 -15t15 -21.5t5.5 -24z" />
    <glyph glyph-name="HIN_MATRA_U1" horiz-adv-x="0" 
d="M-29 -158q0 -15 -13.5 -21t-25.5 -6q-28 0 -44 21.5t-16 47.5q-11 -11 -28 -17.5t-35 -6.5q-25 0 -48 13t-32 37q-8 -22 -31.5 -36t-50.5 -14q-33 0 -58 21t-25 56q0 20 12.5 38.5t35.5 18.5q8 0 14 -5t6 -13q0 -11 -6 -13t-9 -2q-2 0 -4 1t-4 1q-9 0 -15 -7.5t-6 -15.5
q0 -12 5.5 -19.5t14 -11.5t18.5 -5.5t20 -1.5q21 0 35.5 6t23 14t12 15.5t3.5 10.5q0 7 7 7q9 0 9 -5q0 -7 5 -15.5t15 -16t24.5 -13t32.5 -5.5t36 8.5t18 29.5t-18 24q-2 1 -4.5 0t-6.5 -1q-5 0 -9 4.5t-4 10.5q0 7 5.5 12.5t13.5 5.5q12 0 21 -6t15.5 -15t9.5 -19t3 -19
q0 -8 -2 -13t-2 -13t2.5 -18t7 -18.5t12 -14t17.5 -5.5q8 0 12.5 4.5t11.5 4.5q8 0 13.5 -6t5.5 -14z" />
    <glyph glyph-name="HIN_MATRA_U2" horiz-adv-x="0" 
d="M-53 -71q0 -34 -16 -68q2 -4 2 -7q0 -8 -5.5 -13t-13.5 -7q-29 -39 -77 -61t-97 -22q-37 0 -73 13t-64.5 36.5t-46 56.5t-17.5 72q0 8 1 15t9 10l9 -7q4 -36 20 -65t41 -49t56.5 -30.5t67.5 -10.5t71 12t62 36q-23 17 -23 48q-10 -9 -24 -14.5t-28 -5.5q-20 0 -38.5 10.5
t-26.5 30.5q-7 -18 -25.5 -29.5t-40.5 -11.5q-27 0 -47.5 17t-20.5 46q0 17 10.5 31.5t29.5 14.5q6 0 11 -3.5t5 -10.5q0 -10 -5 -11.5t-7 -1.5t-3.5 1t-3.5 1q-8 0 -12.5 -6t-4.5 -13q0 -19 15.5 -25t31.5 -6q17 0 28.5 5t18.5 11.5t10 12.5t3 9q0 5 6 5q7 0 7 -4
q0 -11 16 -26t46 -15q15 0 29.5 7.5t14.5 24.5q0 16 -14 19q-2 1 -4.5 0t-4.5 -1q-11 0 -11 13q0 5 4 9.5t11 4.5q19 0 29.5 -17t10.5 -31q0 -7 -1.5 -10.5t-1.5 -9.5q0 -13 7.5 -28.5t23.5 -17.5q11 15 17 30q5 13 7.5 26.5t6.5 27.5l8 6q8 -2 9.5 -9.5t1.5 -14.5z" />
    <glyph glyph-name="HIN_MATRA_U_BELOW" horiz-adv-x="12" 
d="M-92 -58q0 -19 -13.5 -33t-32.5 -14h-176q-7 0 -14.5 2.5t-7.5 10.5t5 11t11 3l138 -1l3 2q-3 9 -3 17q0 20 12.5 33t31.5 13q20 0 33 -12.5t13 -31.5zM-13 -21q0 -40 -18.5 -73t-48 -56t-66.5 -36t-74 -13t-73 13t-64.5 36.5t-46 56.5t-17.5 72q0 8 1 15t9 10l9 -7
q4 -36 20 -65t41 -49t56.5 -30.5t67.5 -10.5q26 0 52 6.5t49 19t41 31.5t29 44q5 13 7.5 26.5t6.5 27.5l8 6q8 -2 9.5 -9.5t1.5 -14.5zM-113 -58q0 9 -7 16t-16 7q-10 0 -17 -7t-7 -16q0 -25 24 -25q10 0 16.5 7.5t6.5 17.5z" />
    <glyph glyph-name="HIN_MATRA_UU" horiz-adv-x="486" 
d="M445 475q0 -3 -19 -20t-46 -39t-56.5 -45t-50.5 -37q27 -3 51.5 -18t43 -36.5t29.5 -48t11 -53.5q0 -45 -15.5 -79t-43 -56.5t-64.5 -34t-79 -11.5q-39 0 -76 11.5t-66.5 33.5t-47 54.5t-17.5 75.5q0 18 5.5 37t16.5 34.5t26.5 25.5t36.5 10q29 0 49 -20.5t20 -49.5
q0 -32 -18.5 -52.5t-51.5 -20.5q-23 0 -38.5 11.5t-25.5 31.5q5 -42 20.5 -68t39.5 -41t55.5 -20.5t70.5 -5.5q35 0 68 5.5t59 20.5t42 41t17 67q-8 -20 -25 -31t-38 -11q-31 0 -51 19t-20 51q0 16 6 29.5t16.5 23t24.5 15t29 4.5q-9 13 -28 26.5t-47 13.5h-15
q-5 0 -10.5 1.5t-10.5 3.5q-8 6 -22 12t-27 13.5t-22.5 18.5t-9.5 28q0 9 8 18t18 9q11 0 20.5 -12.5t19 -27.5t19.5 -27.5t22 -12.5q6 0 21 10.5t35 26t41.5 34t41 34.5t33.5 26.5t18 10.5q7 -4 7 -9zM418 -84h-98q17 -20 17 -46q0 -21 -8.5 -37t-22 -27t-31.5 -17t-37 -6
q-41 0 -71 21.5t-30 60.5q0 14 3.5 26t14.5 24h-102v46h173l-6 -46q-17 0 -29 -11.5t-12 -22.5q0 -43 59 -43q23 0 40.5 10.5t17.5 31.5q0 27 -47 36v45h169v-45zM487 -93q0 -38 -20.5 -75.5t-56 -66.5t-82 -47t-98.5 -18q-51 0 -96 18t-79.5 45.5t-54.5 61.5t-20 67t17 33
t17 -24q0 -28 18.5 -55.5t49.5 -49t70 -35t80 -13.5q43 0 82.5 14.5t69.5 37.5t48 52.5t18 59.5q0 27 20 27q17 0 17 -32zM380 207q0 23 -16 40t-39 17t-37 -18t-14 -39q0 -22 14 -39.5t37 -17.5q24 0 39.5 17t15.5 40zM136 207q0 24 -14.5 39.5t-38.5 15.5
q-23 0 -37.5 -16.5t-14.5 -38.5q0 -24 13 -40.5t39 -16.5q25 0 39 16.5t14 40.5z" />
    <glyph glyph-name="HIN_MATRA_UU1" horiz-adv-x="12" 
d="M-84 -129q0 -29 -18 -52.5t-50 -23.5q-16 0 -27.5 8t-21.5 20q-11 -15 -21.5 -23t-29.5 -8q-29 0 -48.5 21t-19.5 50q0 15 5 30.5t14.5 28t23 20.5t30.5 8q20 0 33 -11.5t13 -31.5q0 -17 -13.5 -29t-30.5 -12t-28.5 13t-13.5 28q-7 -5 -9.5 -15.5t-2.5 -18.5
q0 -19 12 -32t32 -13q15 0 24.5 5t15.5 11t11 17l3 1.5t3 0.5l4 -2q0 -1 2 -6.5t6.5 -11.5t12.5 -11t21 -5q21 0 33.5 14.5t12.5 34.5q0 31 -19 41t-38 3q-6 -2 -12.5 2.5t-6.5 11.5q0 10 9.5 13t17.5 3q34 0 52.5 -23.5t18.5 -55.5zM-13 -105q0 -23 -8 -43t-22 -40
q-17 -25 -38 -40t-45.5 -23t-51.5 -10.5t-55 -2.5q-8 0 -21.5 3.5t-28.5 8.5t-27.5 11t-18.5 11q-29 22 -49 54.5t-20 70.5q0 7 1 16t10 9q3 0 5.5 -3t4.5 -5q11 -72 59 -105.5t117 -33.5q43 0 85 20.5t65 58.5q8 15 10.5 30.5t7.5 32.5l9 2q8 0 9.5 -8t1.5 -14zM-223 -93
q0 12 -10 17.5t-21 5.5q-6 0 -10.5 -2.5t-4.5 -10.5q0 -11 6.5 -19.5t18.5 -8.5q8 0 14.5 5t6.5 13z" />
    <glyph glyph-name="HIN_MATRA_UU2" horiz-adv-x="12" 
d="M-336 -58q0 19 13 31.5t33 12.5q19 0 31.5 -13t12.5 -33q0 -8 -3 -17l3 -2l138 1q6 0 11 -3t5 -11t-7.5 -10.5t-14.5 -2.5h-176q-19 0 -32.5 14t-13.5 33zM-13 -21q0 -40 -18.5 -73t-48 -56t-66.5 -36t-74 -13t-73 13t-64.5 36.5t-46 56.5t-17.5 72q0 8 1 15t9 10l9 -7
q4 -36 20 -65t41 -49t56.5 -30.5t67.5 -10.5q26 0 52 6.5t49 19t41 31.5t29 44q5 13 7.5 26.5t6.5 27.5l8 6q8 -2 9.5 -9.5t1.5 -14.5zM-315 -58q0 -10 6.5 -17.5t16.5 -7.5q24 0 24 25q0 9 -7 16t-17 7q-9 0 -16 -7t-7 -16zM-62 12q0 -19 -13.5 -33t-32.5 -14h-122
q-7 0 -14.5 2.5t-7.5 10.5t5 11t11 3l84 -1l3 2q-3 9 -3 17q0 20 12.5 33t31.5 13q20 0 33 -12.5t13 -31.5zM-83 12q0 9 -7 16t-16 7q-10 0 -17 -7t-7 -16q0 -25 24 -25q10 0 16.5 7.5t6.5 17.5z" />
    <glyph glyph-name="HIN_MATRA_UU_BELOW" horiz-adv-x="486" 
d="M375 -14q0 -20 -16 -25h59v-45h-98q17 -20 17 -46q0 -21 -8.5 -37t-22 -27t-31.5 -17t-37 -6q-41 0 -71 21.5t-30 60.5q0 14 3.5 26t14.5 24h-102v46h173l-6 -46q-17 0 -29 -11.5t-12 -22.5q0 -43 59 -43q23 0 40.5 10.5t17.5 31.5q0 27 -47 36v45h94q-19 5 -26.5 31.5
t-10.5 55.5q-17 -27 -40 -37.5t-40 -10.5q-15 0 -28 6.5t-24.5 16.5t-21 22t-16.5 24q-2 -12 -7.5 -25t-14 -23t-20 -16.5t-25.5 -6.5q-33 0 -51.5 23.5t-18.5 54.5q0 29 19 50t49 21q25 0 46 -16t40.5 -35.5t39.5 -35.5t45 -16q20 0 34.5 9.5t23.5 24.5t13.5 33.5t4.5 35.5
q0 39 -9.5 62.5t-23.5 37t-30 20t-30 11.5t-23.5 12t-9.5 22q0 12 7.5 17.5t18.5 5.5q22 0 43 -17t37.5 -43.5t26.5 -59t10 -63.5q0 -49 -14 -82q4 -21 13.5 -31.5t19.5 -18t17.5 -14.5t7.5 -20zM487 -93q0 -38 -20.5 -75.5t-56 -66.5t-82 -47t-98.5 -18q-51 0 -96 18
t-79.5 45.5t-54.5 61.5t-20 67t17 33t17 -24q0 -28 18.5 -55.5t49.5 -49t70 -35t80 -13.5q43 0 82.5 14.5t69.5 37.5t48 52.5t18 59.5q0 27 20 27q17 0 17 -32zM120 77q0 21 -16.5 37.5t-37.5 16.5t-37 -18.5t-16 -38.5q0 -10 4.5 -20.5t12.5 -19.5t17.5 -14.5t20.5 -5.5
q25 0 38.5 20t13.5 43zM242 453q-11 -10 -19.5 -18t-17.5 -16.5t-20.5 -18.5t-27.5 -23q-26 -21 -46 -39t-37 -18t-33.5 8t-29.5 19t-21.5 23.5t-9.5 20.5q-2 14 5 21.5t14 7.5q14 0 23.5 -12t17 -27t15.5 -27t19 -12q4 -3 15 4t27 19.5t33.5 28t33.5 30t28.5 25.5t17.5 14z
" />
    <glyph glyph-name="HIN_MATRA_R1" horiz-adv-x="293" 
d="M300 458q0 -7 -5.5 -14t-13.5 -7h-247q-9 0 -18 -8t-9 -18q0 -11 11 -20.5t21 -9.5h120q8 0 12.5 -5t4.5 -12q0 -11 -7.5 -14.5t-16.5 -3.5h-107q-9 0 -16 -9.5t-7 -17.5q0 -11 6.5 -18t14.5 -7h67h2h10q19 0 49.5 -9t49.5 -28q12 -13 11.5 -23.5t-7 -16.5t-16 -6.5
t-15.5 5.5q-1 1 -6.5 9t-14.5 17.5t-22 17t-29 7.5q-42 0 -64 -17.5t-22 -38.5t24 -30t62 -9q125 0 125 -86q0 -16 -7.5 -31.5t-23.5 -27.5t-39.5 -19.5t-54.5 -7.5q-21 0 -42.5 6t-39 17.5t-29 28t-11.5 37.5q0 12 6 18t13.5 6.5t14 -3.5t6.5 -10q0 -16 8 -26t20.5 -15.5
t27 -7.5t26.5 -2q45 0 67 15t22 33q0 10 -3 19t-13 16t-27.5 10.5t-45.5 3.5q-63 0 -89 16.5t-26 48.5q0 34 31 57q-21 3 -31.5 18t-10.5 31q0 11 6.5 23t15.5 18l-1 1q-17 7 -28 24.5t-11 36.5q0 24 20 43t44 19h239q8 0 13.5 -8t5.5 -16z" />
    <glyph glyph-name="HIN_MATRA_R2" horiz-adv-x="420" 
d="M438 458q0 -8 -6 -14.5t-14 -6.5h-206q-10 0 -18.5 -8t-8.5 -18q0 -11 10.5 -20.5t21.5 -9.5h130q8 0 12 -5t4 -12q0 -11 -7 -14.5t-16 -3.5h-118q-9 0 -15.5 -10t-6.5 -18q0 -24 21 -24h22q34 -5 58 -22.5t39 -42t21.5 -52t6.5 -52.5q0 -26 -6 -48.5t-18 -39.5t-31 -27
t-45 -10q-22 0 -38 9.5t-27 20.5q-13 13 -22 31q-10 -17 -24 -31q-12 -11 -30 -20.5t-42 -9.5q-41 0 -62.5 23.5t-22.5 52t20 52t65 23.5q35 0 54.5 -10.5t39.5 -30.5q7 6 13.5 19t6.5 32q0 26 -8 43.5t-17 28.5q-10 13 -25 21q2 -2 -0.5 -14.5t-10 -27t-21 -26t-32.5 -11.5
q-35 0 -50 18.5t-11.5 41t23.5 41t56 18.5q26 0 48.5 -11.5t38.5 -30t25 -42.5t9 -49q0 -33 -10.5 -52t-13.5 -22l8 -10t9 -9q8 -8 21 -13.5t30 -5.5q21 0 35 8.5t23 21.5t12.5 29.5t3.5 31.5q0 49 -32 85t-90 43q-25 3 -36 17.5t-11 31.5q0 11 6.5 22.5t16.5 17.5l-1 2
q-17 7 -28.5 24.5t-11.5 35.5q0 25 20 43.5t45 18.5h199q8 0 13.5 -8t5.5 -15zM164 89q-11 10 -21 18q-11 7 -25 12.5t-33 5.5q-28 0 -41 -12t-12 -26t14.5 -26t38.5 -12q20 0 35 6t25 14q12 10 19 20zM129 261q-5 5 -14 5.5t-12 0.5q-20 0 -31.5 -9.5t-14.5 -21.5t4 -21.5
t24 -9.5q20 0 32 19t12 37zM207 -17q2 -7 -2 -16.5t-24 -9.5t-24.5 9t-1.5 18q1 3 5 11.5t9 17.5q5 12 12 23q7 -11 12 -23q5 -9 8.5 -18t5.5 -12z" />
    <glyph glyph-name="HIN_MATRA_RR" horiz-adv-x="358" 
d="M357 458q0 -7 -5.5 -14t-13.5 -7h-247q-9 0 -18 -8t-9 -18q0 -11 11 -20.5t21 -9.5h120q8 0 12.5 -5t4.5 -12q0 -11 -7.5 -14.5t-16.5 -3.5h-107q-9 0 -16 -9.5t-7 -17.5q0 -11 6.5 -18t14.5 -7h67q2 0 4 -2q35 -6 60 -31.5t41 -59.5t23.5 -70.5t7.5 -62.5q0 -9 -1 -21
t-4 -22.5t-9.5 -17.5t-17.5 -7q-8 0 -17 6.5t-9 16.5q0 9 6 27t6 54q0 27 -7 55.5t-20 52.5t-32 39.5t-44 15.5t-45 -15.5t-34 -39.5t-21.5 -52.5t-7.5 -55.5q0 -36 6 -54t6 -27q0 -10 -8.5 -16.5t-17.5 -6.5q-11 0 -17.5 7t-9.5 17.5t-4 22.5t-1 21q0 21 5.5 48.5t16 56
t27 54.5t38.5 43q-17 5 -25.5 19t-8.5 28q0 11 6.5 23t15.5 18l-1 1q-17 7 -28 24.5t-11 36.5q0 24 20 43t44 19h239q8 0 13.5 -8t5.5 -16z" />
    <glyph glyph-name="HIN_MATRA_RR1" horiz-adv-x="610" 
d="M550 128q0 -26 -6.5 -49.5t-19.5 -41t-33 -27.5t-46 -10q-38 0 -59 18.5t-32 41.5q-2 4 -3.5 7.5t-3.5 7.5q-9 -32 -33 -53.5t-64 -21.5q-23 0 -38 10t-25 23q-11 13 -18 33q-9 -25 -31 -45.5t-50 -20.5q-37 0 -62.5 25.5t-25.5 62.5q0 36 25.5 61.5t62.5 25.5
q32 0 54 -17.5t32 -42.5q3 -8 8.5 -19t14.5 -21.5t22 -18t31 -7.5q27 0 45 14.5t26 36t6.5 47t-12.5 47t-32 36t-51 14.5q-16 0 -23 8t-7 17t6 17t17 8q32 0 57 -17t41.5 -43.5t24 -59t5.5 -63.5q4 -9 11.5 -20t18.5 -20t26 -15.5t36 -6.5q26 0 44 14.5t26.5 36.5t7.5 47.5
t-12 47.5t-32 36.5t-52 14.5q-17 0 -25 7.5t-8 16.5t7 16.5t19 7.5q33 0 57 -16t40.5 -41t24.5 -54t8 -55zM297 457q0 -8 -5.5 -15t-13.5 -7h-247q-9 0 -18 -8t-9 -18q0 -11 11 -20.5t21 -9.5l110 1q17 0 17 -18q0 -11 -7.5 -14.5t-16.5 -3.5h-97q-9 0 -16 -9.5t-7 -17.5
q0 -11 6.5 -17t14.5 -6h66q5 0 8 -4.5t3 -9.5q0 -3 -3 -7.5t-6 -4.5h-65q-22 0 -36 15t-14 33q0 11 6.5 22.5t15.5 17.5l-1 1q-17 8 -28 25.5t-11 35.5q0 25 20 43.5t44 18.5h239q8 0 13.5 -8t5.5 -15zM144 100q0 21 -16.5 36t-39.5 15q-24 0 -40 -15t-16 -36t16 -36t40 -15
q23 0 39.5 15t16.5 36zM191 -14q1 -4 2 -10t-1 -11.5t-7 -9.5t-16 -4q-20 0 -22.5 12.5t0.5 21.5q1 3 4.5 10.5t7.5 15.5l10 19l10 -19q4 -8 7 -15t5 -10z" />
    <glyph glyph-name="HIN_MATRA_RR2" horiz-adv-x="411" 
d="M477 458q0 -7 -5.5 -14t-13.5 -7h-247q-9 0 -18 -8t-9 -18q0 -11 11 -20.5t21 -9.5h120q8 0 12.5 -5t4.5 -12q0 -11 -7.5 -14.5t-16.5 -3.5h-107q-9 0 -16 -9.5t-7 -17.5q0 -11 6.5 -18t14.5 -7h67q5 0 7.5 -4.5t2.5 -9.5q0 -2 -3 -7t-6 -5h-9v-1l-17 -57h70q1 0 5 -2
q6 -5 6 -11q0 -5 -2 -6.5t-4 -3.5q-4 -2 -5 -2h-160q-9 -17 -25.5 -23.5t-34.5 -9t-35 -5.5t-26 -12q-16 -16 -19 -31.5t4 -27.5t21.5 -19.5t32.5 -7.5q23 0 38.5 9.5t26.5 21.5q13 15 20 31q0 2 2.5 5t7.5 3q4 0 6 -3t2 -5q2 -9 6.5 -16.5t9.5 -14.5q9 -12 24 -21.5
t38 -9.5q8 0 19.5 1.5t21.5 6t17 12.5t7 20q0 11 -4.5 15.5t-9.5 6.5q-8 2 -14 1q-7 0 -12 5.5t-5.5 11.5t4 11.5t15.5 5.5q17 0 28.5 -11t16.5 -27t3.5 -35t-11.5 -35t-28.5 -27t-46.5 -11q-26 0 -42.5 10t-26.5 23q-11 16 -18 34q-7 -17 -20 -34q-11 -13 -28.5 -23
t-43.5 -10q-16 0 -32.5 6t-30 17t-22 26t-8.5 34q0 16 5.5 28t12.5 21q7 10 18 18q10 10 30 14.5t40 9.5t34.5 14t14.5 30q0 25 -18.5 37t-33.5 12q-16 0 -26 -7.5t-16 -15.5q-7 -9 -10 -23q0 -11 -7 -17.5t-15.5 -7.5t-15.5 5t-7 21q0 18 9.5 31.5t23.5 22.5t28.5 13.5
t25.5 4.5q37 0 63 -23t23 -61h70l-16 58h-10q-25 0 -37.5 16t-12.5 33q0 11 6.5 23t15.5 18l-1 1q-17 7 -28 24.5t-11 36.5q0 24 20 43t44 19h239q8 0 13.5 -8t5.5 -16z" />
    <glyph glyph-name="HIN_MATRA_l" horiz-adv-x="404" 
d="M397 458q0 -7 -5.5 -14t-13.5 -7h-247q-9 0 -18 -8t-9 -18q0 -11 11 -20.5t21 -9.5h120q8 0 12.5 -5t4.5 -12q0 -11 -7.5 -14.5t-16.5 -3.5h-107q-9 0 -16 -9.5t-7 -17.5q0 -11 6.5 -18t14.5 -7h53h4h10h2h4q31 0 56.5 -15t43 -39.5t27 -57t9.5 -67.5q0 -21 -6 -41.5
t-18 -37t-28.5 -26.5t-37.5 -10q-19 0 -32 9t-21 20q-11 13 -15 30q-6 -18 -16 -30q-9 -11 -23 -20t-34 -9q-35 0 -58 23.5t-23 54.5q0 23 7.5 38t17.5 26q11 11 26 20h-37t-22.5 0.5t-13 2.5t-8.5 6q-6 6 -7 14t2 15t9.5 11.5t15.5 4.5q25 -8 48 -12q18 -5 34.5 -9.5
t18.5 -6.5q9 -10 3 -19q-3 -4 -7 -7q-8 -2 -15 -5.5t-12 -7.5q-10 -8 -18 -19.5t-8 -29.5q0 -21 13.5 -36t39.5 -15q23 0 34 10t16 22q4 13 6 33q0 2 2 4q4 4 9 4q4 0 8 -4l3 -4q1 -20 6 -33q5 -12 15 -22t30 -10q16 0 29 8t21.5 20t13 26t4.5 26q0 24 -7 48.5t-20.5 45
t-34 33t-46.5 12.5h-5h-65q-25 0 -37.5 16t-12.5 33q0 11 6.5 23t15.5 18l-1 1q-17 7 -28 24.5t-11 36.5q0 24 20 43t44 19h239q8 0 13.5 -8t5.5 -16z" />
    <glyph glyph-name="HIN_MATRA_l1" horiz-adv-x="404" 
d="M397 458q0 -7 -5.5 -14t-13.5 -7h-247q-9 0 -18 -8t-9 -18q0 -11 11 -20.5t21 -9.5h120q8 0 12.5 -5t4.5 -12q0 -11 -7.5 -14.5t-16.5 -3.5h-107q-9 0 -16 -9.5t-7 -17.5q0 -11 6.5 -18t14.5 -7h67h2h4q31 0 56.5 -15t43 -39.5t27 -57t9.5 -67.5q0 -21 -6 -41.5t-18 -37
t-28.5 -26.5t-37.5 -10q-19 0 -32 9t-21 20q-11 13 -15 30q-6 -18 -16 -30q-9 -11 -23 -20t-34 -9q-35 0 -58 23.5t-23 54.5q0 23 7.5 38t17.5 26q11 11 26 20h-37t-22.5 0.5t-13 2.5t-8.5 6q-6 6 -7 14t2 15t9.5 11.5t15.5 4.5q25 -8 48 -12q18 -5 34.5 -9.5t18.5 -6.5
q9 -10 3 -19q-3 -4 -7 -7q-8 -2 -15 -5.5t-12 -7.5q-10 -8 -18 -19.5t-8 -29.5q0 -21 13.5 -36t39.5 -15q23 0 34 10t16 22q4 13 6 33q0 2 2 4q4 4 9 4q4 0 8 -4l3 -4q1 -20 6 -33q5 -12 15 -22t30 -10q16 0 29 8t21.5 20t13 26t4.5 26q0 24 -7 48.5t-20.5 45t-34 33
t-46.5 12.5h-70q-25 0 -37.5 16t-12.5 33q0 11 6.5 23t15.5 18l-1 1q-17 7 -28 24.5t-11 36.5q0 24 20 43t44 19h239q8 0 13.5 -8t5.5 -16zM213 -14q1 -4 2 -10t-1 -11.5t-7 -9.5t-16 -4q-20 0 -22.5 12.5t0.5 21.5q1 3 4.5 10.5t7.5 15.5l10 19l10 -19q4 -8 7 -15t5 -10z
" />
    <glyph glyph-name="HIN_MATRA_l2" horiz-adv-x="404" 
d="M425 458q0 -8 -6 -14.5t-14 -6.5h-206q-10 0 -18.5 -8t-8.5 -18q0 -11 10.5 -20.5t21.5 -9.5h130q8 0 12 -5t4 -12q0 -11 -7 -14.5t-16 -3.5h-118q-9 0 -15.5 -10t-6.5 -18q0 -24 21 -24h36h2h4h17q35 -2 52 -25.5t16 -51.5t-21 -51t-59 -23q-18 0 -31.5 6t-23.5 14
t-16 16t-9 13q-6 -21 -21.5 -31.5t-34.5 -17.5t-37 -12.5t-29 -16.5q-8 -8 -10.5 -19.5t1.5 -21.5t13.5 -17t24.5 -7q23 0 37 8t22 18q9 9 14 26q0 2 3 5.5t7 3.5q5 0 7 -3.5t2 -5.5q4 -14 16 -26q9 -10 23.5 -18t37.5 -8q25 0 38.5 6t18 12.5t3 12.5t-5.5 6q-8 0 -11.5 5
t-3 11t5 11t12.5 5q19 0 29 -18.5t5.5 -40.5t-26 -40.5t-63.5 -18.5q-26 0 -43 8.5t-27 19.5t-18 29q-5 -19 -14 -29q-8 -11 -24 -19.5t-42 -8.5q-16 0 -31 4.5t-27 13.5t-19.5 23t-7.5 33t5.5 32t12.5 21q7 10 18 15q8 8 27.5 11.5t40 10t36 18.5t15.5 36q0 13 -6 22
t-14 15t-18 9t-17 3q-9 0 -19.5 -5t-17.5 -12.5t-9 -16.5t7 -18q7 -7 5.5 -16t-8 -15t-16.5 -7t-20 9q-11 12 -12.5 30t8.5 35.5t31 30t55 12.5q29 0 51.5 -18.5t22.5 -44.5q0 -5 6 -13t15.5 -15t22 -12t25.5 -5q28 0 44.5 12.5t19.5 27.5t-7.5 28t-37.5 14h-17h-3h-36
q-26 0 -38 16t-12 33q0 11 6.5 22.5t16.5 17.5l-1 2q-17 7 -28.5 24.5t-11.5 35.5q0 25 20 43.5t45 18.5h199q8 0 13.5 -8t5.5 -15z" />
    <glyph glyph-name="HIN_MATRA_ll" horiz-adv-x="725" 
d="M350 458q0 -7 -5.5 -14t-13.5 -7h-247q-9 0 -18 -8t-9 -18q0 -11 11 -20.5t21 -9.5h120q8 0 12.5 -5t4.5 -12q0 -11 -7.5 -14.5t-16.5 -3.5h-107q-9 0 -16 -9.5t-7 -17.5q0 -11 6.5 -18t14.5 -7h67q1 0 2 -0.5t2 -0.5q27 -3 51 -15.5t41.5 -32t27.5 -45t10 -53.5
q0 -23 -8 -47q8 -17 26.5 -34t59.5 -17q27 0 44.5 14.5t26 36.5t8 47.5t-10.5 47.5t-29.5 36.5t-47.5 14.5q-17 0 -24.5 7.5t-7.5 16.5t7 16.5t19 7.5q29 0 51.5 -16t37.5 -41t22.5 -54t7.5 -55q1 -2 3.5 -14.5t10.5 -27t24.5 -26t44.5 -11.5q26 0 44 14.5t26.5 36.5
t7.5 47.5t-12 47.5t-32 36.5t-52 14.5q-17 0 -25 7.5t-8 16.5t7 16.5t19 7.5q33 0 57 -16t40 -41t24 -54t8 -55t-6.5 -49.5t-19.5 -41t-32.5 -27.5t-45.5 -10q-19 0 -33.5 6.5t-25.5 16.5t-19 22.5t-14 25.5q-11 -32 -34.5 -51.5t-60.5 -19.5q-38 0 -59 18t-32 41
q-3 4 -7 14q-19 -33 -52 -53t-75 -20q-30 0 -57 11.5t-47 31.5t-31.5 47t-11.5 57q0 40 20 73.5t52 52.5q-13 7 -19.5 19t-6.5 25q0 11 6.5 23t15.5 18l-1 1q-17 7 -28 24.5t-11 36.5q0 24 20 43t44 19h239q8 0 13.5 -8t5.5 -16zM264 157q0 22 -9.5 42t-25.5 35t-37 24
t-43 9q-23 0 -44 -9t-37 -24t-25.5 -35t-9.5 -42q0 -24 10 -43.5t26.5 -34t37.5 -22.5t42 -8q22 0 43 8.5t37 23t25.5 34t9.5 42.5zM490 -14q1 -4 2 -10t-1 -11.5t-7 -9.5t-16 -4q-20 0 -22.5 12.5t0.5 21.5q1 3 4.5 10.5t7.5 15.5l10 19l10 -19q4 -8 7 -15t5 -10z" />
    <glyph glyph-name="HIN_MATRA_ll1" horiz-adv-x="518" 
d="M597 458q0 -7 -5.5 -14t-13.5 -7h-247q-9 0 -18 -8t-9 -18q0 -11 11 -20.5t21 -9.5h120q8 0 12.5 -5t4.5 -12q0 -11 -7.5 -14.5t-16.5 -3.5h-107q-9 0 -16 -9.5t-7 -17.5q0 -11 6.5 -18t14.5 -7h67q5 0 7.5 -4.5t2.5 -9.5q0 -2 -3 -7t-6 -5h-5v-3l-17 -57h69q2 0 6 -2
q6 -5 6 -10q0 -7 -6 -11q-4 -2 -6 -2h-157q0 -27 -11 -54t-28 -50q7 -8 13 -17t11 -17q9 -14 16.5 -30t7.5 -29q0 -6 -4 -12t-10.5 -9.5t-14 -3t-13.5 6.5t-7 17.5t-1 24t-2 25.5t-12 23q-26 -26 -58.5 -42t-75.5 -16q-51 0 -79 23.5t-30 52t24.5 52t84.5 23.5q35 0 68 -11
t65 -40q17 16 23.5 38.5t6.5 39.5q0 27 -16 50t-47 23q-16 0 -27 -7t-18 -15q-4 -5 -7.5 -10.5t-5.5 -10.5q0 -2 -2 -5t-6 -3q-5 0 -7.5 3t-2.5 5q-3 14 -10 23q-6 9 -16 16.5t-26 7.5q-12 0 -20.5 -7t-12.5 -16t-3.5 -18.5t5.5 -14.5q3 -4 0.5 -8t-6.5 -8q-3 -3 -8.5 -2
t-9.5 4q-8 8 -12 26t1 36.5t20 32.5t44 14q16 0 28 -7.5t20 -16.5q8 -10 15 -23l8 12t9 11q8 9 20.5 16.5t28.5 7.5q40 0 61 -23t27 -63h76l-15 59v1h-14q-25 0 -37.5 16t-12.5 33q0 11 6.5 23t15.5 18l-1 1q-17 7 -28 24.5t-11 36.5q0 24 20 43t44 19h239q8 0 13.5 -8
t5.5 -16zM221 82q-26 26 -56 34.5t-56 8.5q-39 0 -58.5 -12t-19.5 -26t19.5 -26t58.5 -12q13 0 28 1t30 5t29 10t25 17z" />
    <glyph glyph-name="HIN_MATRA_ll2" horiz-adv-x="444" 
d="M468 458q0 -8 -6 -14.5t-14 -6.5h-206q-10 0 -18.5 -8t-8.5 -18q0 -11 10.5 -20.5t21.5 -9.5h130q8 0 12 -5t4 -12q0 -11 -7 -14.5t-16 -3.5h-118q-9 0 -15.5 -10t-6.5 -18q0 -24 21 -24q15 -2 23 -3t11.5 -1.5t5.5 -1t5 -1.5q30 -7 51 -31t32 -56t11.5 -67.5t-11 -65
t-34.5 -48.5t-60 -19q-21 0 -36.5 10.5t-25.5 23.5q-13 16 -20 35q-5 -10 -10.5 -18.5t-12.5 -16.5q-11 -13 -27.5 -23.5t-37.5 -10.5q-26 0 -47 12t-36 32.5t-23.5 48t-8.5 58.5q0 49 14.5 78t32.5 43q21 18 47 22l-15 60q2 9 4 12q5 12 22 12t22 -12q2 -3 4 -12l-16 -58
q26 -3 43.5 -22.5t17.5 -45.5q0 -28 -20 -47.5t-48 -19.5q-20 0 -32.5 8t-20 18.5t-10.5 21t-3 15.5q-15 -15 -17.5 -44.5t7.5 -58.5t32 -50.5t57 -21.5q20 0 34 10.5t22 23.5q10 15 15 35q0 2 2 4q5 5 9 5q3 0 4.5 -1.5l3.5 -3.5l3 -4q5 -22 14 -35q8 -13 22 -23.5
t35 -10.5q30 0 47.5 16t24.5 40.5t4 53t-15.5 53t-33 40.5t-48.5 16h-11q-26 0 -38 16t-12 33q0 11 6.5 22.5t16.5 17.5l-1 2q-17 7 -28.5 24.5t-11.5 35.5q0 25 20 43.5t45 18.5h199q8 0 13.5 -8t5.5 -15zM107 188q21 0 31 12.5t10 27.5t-10 27.5t-31 12.5q-17 0 -31.5 -9
t-14.5 -13q0 -18 4 -29t13.5 -20t28.5 -9z" />
    <glyph glyph-name="HIN_MATRA_lll" horiz-adv-x="344" 
d="M350 458q0 -7 -5.5 -14t-13.5 -7h-247q-9 0 -18 -8t-9 -18q0 -11 11 -20.5t21 -9.5h120q8 0 12.5 -5t4.5 -12q0 -11 -7.5 -14.5t-16.5 -3.5h-107q-9 0 -16 -9.5t-7 -17.5q0 -11 6.5 -18t14.5 -7h48h6h6q6 0 8 -0.5t3 -0.5q27 -3 51 -15.5t41.5 -32t27.5 -45t10 -53.5
q0 -30 -11.5 -57t-31.5 -47t-46.5 -31.5t-57.5 -11.5q-30 0 -57 11.5t-47 31.5t-31.5 47t-11.5 57q0 40 20 73.5t52 52.5q-13 7 -19.5 19t-6.5 25q0 11 6.5 23t15.5 18l-1 1q-17 7 -28 24.5t-11 36.5q0 24 20 43t44 19h239q8 0 13.5 -8t5.5 -16zM264 157q0 22 -9.5 42
t-25.5 35t-37 24t-43 9q-23 0 -44 -9t-37 -24t-25.5 -35t-9.5 -42q0 -24 10 -43.5t26.5 -34t37.5 -22.5t42 -8q22 0 43 8.5t37 23t25.5 34t9.5 42.5zM148 136q-13 0 -19.5 7.5t-6.5 16t6 16t19 7.5q12 0 18.5 -7.5t6.5 -16t-6 -16t-18 -7.5z" />
    <glyph glyph-name="HIN_MATRA_lll1" horiz-adv-x="390" 
d="M397 458q0 -7 -5.5 -14t-13.5 -7h-247q-9 0 -18 -8t-9 -18q0 -11 11 -20.5t21 -9.5h120q8 0 12.5 -5t4.5 -12q0 -11 -7.5 -14.5t-16.5 -3.5h-107q-9 0 -16 -9.5t-7 -17.5q0 -11 6.5 -18t14.5 -7h67q6 0 8 -6q18 -3 35.5 -10t28.5 -18q6 -6 6 -12.5t-3.5 -12t-9 -8.5
t-10.5 -3q-3 0 -11 7t-19.5 15t-26.5 15t-34 7q-29 0 -54.5 -12t-44.5 -31.5t-30 -44.5t-11 -51q0 -31 18.5 -55.5t50.5 -24.5q25 0 38.5 12t19.5 27q7 15 7 39q0 2 2 4q4 4 9 4t9 -4q2 -2 2 -4q1 -11 3.5 -21t6.5 -18q7 -15 20.5 -27t39.5 -12q8 0 18.5 2.5t20 8t16 15
t6.5 23.5q0 16 -7 26.5t-25 10.5q-11 0 -15.5 -4t-7.5 -9.5t-6 -9.5t-10 -4q-18 0 -18 17q0 15 16 25.5t30 10.5q40 0 57.5 -21t17.5 -52q0 -34 -23.5 -61t-65.5 -27q-20 0 -36 10t-27 23q-13 14 -22 34q-11 -20 -22 -34q-11 -13 -26 -23t-34 -10q-21 0 -38 9t-29.5 24
t-19.5 34.5t-7 40.5q0 27 8 53t23 48.5t35 40.5t44 29q-9 8 -13 17.5t-4 20.5t6.5 23t15.5 18l-1 1q-17 7 -28 24.5t-11 36.5q0 24 20 43t44 19h239q8 0 13.5 -8t5.5 -16z" />
    <glyph glyph-name="HIN_MATRA_lll2" horiz-adv-x="390" 
d="M397 458q0 -7 -5.5 -14t-13.5 -7h-247q-9 0 -18 -8t-9 -18q0 -11 11 -20.5t21 -9.5h120q8 0 12.5 -5t4.5 -12q0 -11 -7.5 -14.5t-16.5 -3.5h-107q-9 0 -16 -9.5t-7 -17.5q0 -11 6.5 -18t14.5 -7h67q6 0 8 -6q18 -3 35.5 -10t28.5 -18q6 -6 6 -12.5t-3.5 -12t-9 -8.5
t-10.5 -3q-3 0 -10.5 6.5t-19 14.5t-26 15t-32.5 8h-9q-28 -2 -52.5 -14t-42.5 -31.5t-28.5 -44t-10.5 -49.5q0 -31 18.5 -55.5t50.5 -24.5q25 0 38.5 12t19.5 27q7 15 7 39q0 2 2 4q4 4 9 4t9 -4q2 -2 2 -4q1 -11 3.5 -21t6.5 -18q7 -15 20.5 -27t39.5 -12q8 0 18.5 2.5
t20 8t16 15t6.5 23.5q0 16 -7 26.5t-25 10.5q-11 0 -15.5 -4t-7.5 -9.5t-6 -9.5t-10 -4q-18 0 -18 17q0 15 16 25.5t30 10.5q40 0 57.5 -21t17.5 -52q0 -34 -23.5 -61t-65.5 -27q-20 0 -36 10t-27 23q-13 14 -22 34q-11 -20 -22 -34q-11 -13 -26 -23t-34 -10q-21 0 -38 9
t-29.5 24t-19.5 34.5t-7 40.5q0 27 8 53t23 48.5t35 40.5t44 29q-9 8 -13 17.5t-4 20.5t6.5 23t15.5 18l-1 1q-17 7 -28 24.5t-11 36.5q0 24 20 43t44 19h239q8 0 13.5 -8t5.5 -16zM198 -14q1 -4 2 -10t-1 -11.5t-7 -9.5t-16 -4q-20 0 -22.5 12.5t0.5 21.5q1 3 4.5 10.5
t7.5 15.5l10 19l10 -19q4 -8 7 -15t5 -10z" />
    <glyph glyph-name="HIN_MATRA_CHANDRA" horiz-adv-x="449" 
d="M497 458q0 -7 -5.5 -14t-13.5 -7h-247q-9 0 -18 -8t-9 -18q0 -11 11 -20.5t21 -9.5h120q8 0 12.5 -5t4.5 -12q0 -11 -7.5 -14.5t-16.5 -3.5h-107q-9 0 -16 -9.5t-7 -17.5q0 -11 6.5 -18t14.5 -7h35h8h6h18q5 0 8 -5q36 -12 57 -46q14 -22 21.5 -51t6.5 -58.5t-11.5 -57
t-32.5 -46.5q-20 -18 -47 -25t-51.5 -1.5t-41.5 24.5t-17 53q0 33 21 56t51 23q29 0 43.5 -15t19.5 -32q6 -20 3 -46q7 0 16 14t14 35t5.5 45t-8.5 45t-29.5 35t-56.5 14q-21 0 -36 -11t-24 -24q-12 -17 -17 -34l-3 -4q-4 -4 -8 -4q-5 0 -9 4q-2 2 -2 4q-4 10 -9 18l-10 16
q-10 13 -24.5 24t-35.5 11q-8 0 -18.5 -3t-20.5 -9.5t-16.5 -16t-6.5 -21.5q0 -9 3 -17.5t11 -15t22.5 -11t37.5 -4.5l4 -3l3.5 -3.5t1.5 -4.5q0 -4 -1.5 -5.5l-3.5 -3.5t-4 -2q-10 0 -23 -1.5t-25 -6t-20.5 -13.5t-8.5 -24q0 -11 5.5 -19t13.5 -13t17 -7t17 -2q22 0 30 6.5
t11 15t5 15t12 6.5q11 0 16 -9.5t5 -17.5q0 -17 -8 -29t-20 -20t-26.5 -12t-27.5 -4q-15 0 -30 5.5t-27 16t-20 24.5t-8 31q0 19 7 32.5t16 21.5q10 10 24 16q-12 6 -21 15q-8 8 -14 20t-6 30q0 19 8.5 34t22 25.5t31 16.5t36.5 6q26 0 42.5 -9.5t26.5 -20.5q5 -7 9.5 -14
t7.5 -15q7 15 21 29l9 8q-14 7 -20.5 19.5t-6.5 25.5q0 11 6.5 23t15.5 18l-1 1q-17 7 -28 24.5t-11 36.5q0 24 20 43t44 19h239q8 0 13.5 -8t5.5 -16zM315 90q0 23 -14 34t-30.5 11t-30.5 -11t-14 -31q0 -17 14.5 -30.5t40.5 -13.5q27 0 30.5 8.5t3.5 32.5z" />
    <glyph glyph-name="HIN_MATRA_CHANDRA1" horiz-adv-x="410" 
d="M417 458q0 -7 -5.5 -14t-13.5 -7h-247q-9 0 -18 -8t-9 -18q0 -11 11 -20.5t21 -9.5h120q8 0 12.5 -5t4.5 -12q0 -11 -7.5 -14.5t-16.5 -3.5h-107q-9 0 -16 -9.5t-7 -17.5q0 -11 6.5 -18t14.5 -7h37h14q12 -1 16.5 -2t6.5 -2q16 -5 36 -16t44 -34q4 -4 11 -13t14.5 -22
t13 -30t5.5 -37q0 -34 -16 -60t-41 -43.5t-55.5 -26.5t-60.5 -9q-32 0 -65 8t-59.5 25.5t-43.5 44t-17 63.5q0 18 6 36t17.5 32.5t27 23t35.5 8.5q25 0 43 -16.5t18 -42.5q0 -25 -20 -42.5t-44 -17.5q-13 0 -25 5.5t-23 13.5q0 -14 7 -29.5t24.5 -28t45.5 -21t70 -8.5
q38 0 65.5 8t45 20.5t25.5 28.5t8 33q-10 -10 -24 -17t-28 -7q-24 0 -43.5 19t-19.5 44t18.5 41t44.5 16q-10 12 -21.5 18t-21.5 8.5t-18 2.5h-12h-3h-35q-25 0 -37.5 16t-12.5 33q0 11 6.5 23t15.5 18l-1 1q-17 7 -28 24.5t-11 36.5q0 24 20 43t44 19h239q8 0 13.5 -8
t5.5 -16zM117 182q0 13 -9 22.5t-23 9.5q-9 0 -17 -3.5t-14 -9t-10 -11t-4 -8.5t4 -8.5t10.5 -10.5t14 -9t14.5 -4q13 0 23.5 8.5t10.5 23.5zM321 182q0 3 -4 8.5t-10 11t-14 9t-17 3.5q-14 0 -23 -9.5t-9 -22.5q0 -15 11 -23.5t23 -8.5q7 0 14.5 4t14 9t10.5 10.5t4 8.5z
" />
    </font>
</defs>
</svg>
